(Opera) Giuseppe Verdi - Aida / Джузеппе Верди - Аида (Jonel Perlea; Zinka Milanov, Fedora Barbieri, Jussi Bjorling, Leonard Warren, Boris Christoff, Plinio Clabassi), 1955 - studio recording - FLAC (tracks+.cue), lossless


 

[Цитировать]

Giuseppe Verdi - Aida / Джузеппе Верди - Аида (Jonel Perlea; Zinka Milanov, Fedora Barbieri, Jussi Björling, Leonard Warren, Boris Christoff)
Жанр: Opera
Страна-производитель диска: США
Издатель (лейбл): RCA
Дата записи: 1955
Аудиокодек: FLAC
Тип рипа: tracks+.cue
Битрейт аудио: lossless
Продолжительность: 146:12
Источник: релизер (Guillermo)
Исполнители:
Aida - Zinka Milanov,
Amneris - Fedora Barbieri,
Radamès - Jussi Björling,
Amonasro - Leonard Warren,
Ramphis - Boris Christoff,
Il Re di Egitto - Plinio Clabassi,
Una Sacerdotessa - Bruna Rizzoli,
Un Messaggero - Mario Carlin.
Conductor - Jonel Perlea
Orchestra and Chorus of Teatro dell'Opera di Roma
Recorded in the Rome Opera House, July 1955.

Лог создания рипаЛог создания рипа CD 1

Exact Audio Copy V1.0 beta 3 from 29. August 2011
EAC extraction logfile from 3. August 2015, 14:42
Guiseppe Verdi / Aida
Used drive : HL-DT-STDVDRAM GH24NSC0 Adapter: 3 ID: 0
Read mode : Secure
Utilize accurate stream : Yes
Defeat audio cache : Yes
Make use of C2 pointers : No
Read offset correction : 6
Overread into Lead-In and Lead-Out : No
Fill up missing offset samples with silence : Yes
Delete leading and trailing silent blocks : No
Null samples used in CRC calculations : Yes
Used interface : Native Win32 interface for Win NT & 2000
Gap handling : Appended to previous track
Used output format : User Defined Encoder
Selected bitrate : 768 kBit/s
Quality : High
Add ID3 tag : No
Command line compressor : C:\Program Files (x86)\Exact Audio Copy\FLAC\FLAC.EXE
Additional command line options : -8 -V -T "ARTIST=%artist%" -T "TITLE=%title%" -T "ALBUM=%albumtitle%" -T "DATE=%year%" -T "TRACKNUMBER=%tracknr%" -T "GENRE=%genre%" -T "PERFORMER=%albuminterpret%" -T "COMPOSER=%composer%" %haslyrics%--tag-from-file=LYRICS="%lyricsfile%"%haslyrics% -T "ALBUMARTIST=%albumartist%" -T "DISCNUMBER=%cdnumber%" -T "TOTALDISCS=%totalcds%" -T "TOTALTRACKS=%numtracks%" -T "COMMENT=%comment%" %source% -o %dest%
TOC of the extracted CD
Track | Start | Length | Start sector | End sector
---------------------------------------------------------
1 | 0:00.00 | 3:24.62 | 0 | 15361
2 | 3:24.62 | 1:58.58 | 15362 | 24269
3 | 5:23.45 | 4:42.50 | 24270 | 45469
4 | 10:06.20 | 2:48.65 | 45470 | 58134
5 | 12:55.10 | 1:39.52 | 58135 | 65611
6 | 14:34.62 | 1:53.68 | 65612 | 74154
7 | 16:28.55 | 1:16.07 | 74155 | 79861
8 | 17:44.62 | 1:49.63 | 79862 | 88099
9 | 19:34.50 | 2:57.65 | 88100 | 101439
10 | 22:32.40 | 6:36.35 | 101440 | 131174
11 | 29:09.00 | 3:51.30 | 131175 | 148529
12 | 33:00.30 | 2:17.55 | 148530 | 158859
13 | 35:18.10 | 1:14.42 | 158860 | 164451
14 | 36:32.52 | 4:12.28 | 164452 | 183379
15 | 40:45.05 | 2:58.60 | 183380 | 196789
16 | 43:43.65 | 1:23.15 | 196790 | 203029
17 | 45:07.05 | 1:41.32 | 203030 | 210636
18 | 46:48.37 | 5:30.35 | 210637 | 235421
19 | 52:18.72 | 2:02.68 | 235422 | 244639
20 | 54:21.65 | 2:44.50 | 244640 | 256989
Track 1
Filename f:\Users\Guillermo\Desktop\EAC convertidos\01 Prelude.wav
Pre-gap length 0:00:02.00
Peak level 64.5 %
Extraction speed 1.4 X
Track quality 100.0 %
Test CRC D5B50DA4
Copy CRC D5B50DA4
Copy OK
Track 2
Filename f:\Users\Guillermo\Desktop\EAC convertidos\02 Si- corre voce che l'Etiope.wav
Peak level 27.0 %
Extraction speed 1.3 X
Track quality 100.0 %
Test CRC 1029AE28
Copy CRC 1029AE28
Copy OK
Track 3
Filename f:\Users\Guillermo\Desktop\EAC convertidos\03 Se quel guerrier; Celeste Aida.wav
Peak level 42.6 %
Extraction speed 1.5 X
Track quality 99.9 %
Test CRC 69B62DB2
Copy CRC 69B62DB2
Copy OK
Track 4
Filename f:\Users\Guillermo\Desktop\EAC convertidos\04 Quale insolita gioia nel tuo sguardo.wav
Peak level 56.8 %
Extraction speed 1.4 X
Track quality 99.8 %
Test CRC 012A66DB
Copy CRC 012A66DB
Copy OK
Track 5
Filename f:\Users\Guillermo\Desktop\EAC convertidos\05 Dessa!.wav
Peak level 45.9 %
Extraction speed 1.5 X
Track quality 100.0 %
Test CRC 67B87363
Copy CRC 67B87363
Copy OK
Track 6
Filename f:\Users\Guillermo\Desktop\EAC convertidos\06 Ohime! Di guerra fremere.wav
Peak level 64.0 %
Extraction speed 1.6 X
Track quality 100.0 %
Test CRC 1F86206E
Copy CRC 1F86206E
Copy OK
Track 7
Filename f:\Users\Guillermo\Desktop\EAC convertidos\07 Alta cagion v'aduna.wav
Peak level 58.4 %
Extraction speed 1.4 X
Track quality 100.0 %
Test CRC 7C2E0E41
Copy CRC 7C2E0E41
Copy OK
Track 8
Filename f:\Users\Guillermo\Desktop\EAC convertidos\08 Il sacro suolo dell'Egitto e invaso.wav
Peak level 77.7 %
Extraction speed 1.6 X
Track quality 100.0 %
Test CRC EED41C13
Copy CRC EED41C13
Copy OK
Track 9
Filename f:\Users\Guillermo\Desktop\EAC convertidos\09 Su! del Nilo al sacro lido.wav
Peak level 79.0 %
Extraction speed 2.0 X
Track quality 100.0 %
Test CRC EFD56124
Copy CRC EFD56124
Copy OK
Track 10
Filename f:\Users\Guillermo\Desktop\EAC convertidos\10 Ritorna vincitor!.wav
Peak level 61.7 %
Extraction speed 2.4 X
Track quality 100.0 %
Test CRC 34067428
Copy CRC 34067428
Copy OK
Track 11
Filename f:\Users\Guillermo\Desktop\EAC convertidos\11 Possente, possente Ftha.wav
Peak level 12.2 %
Extraction speed 2.4 X
Track quality 100.0 %
Test CRC 97BF95BE
Copy CRC 97BF95BE
Copy OK
Track 12
Filename f:\Users\Guillermo\Desktop\EAC convertidos\12 Sacred Dance of the Priestesses.wav
Peak level 24.2 %
Extraction speed 2.2 X
Track quality 100.0 %
Test CRC 32B20C1D
Copy CRC 32B20C1D
Copy OK
Track 13
Filename f:\Users\Guillermo\Desktop\EAC convertidos\13 Mortal, diletto ai numi.wav
Peak level 52.6 %
Extraction speed 1.2 X
Track quality 99.7 %
Test CRC 7C3F86CC
Copy CRC 7C3F86CC
Copy OK
Track 14
Filename f:\Users\Guillermo\Desktop\EAC convertidos\14 Nume, custode e vindice.wav
Peak level 82.5 %
Extraction speed 2.2 X
Track quality 99.9 %
Test CRC BBB4C2CD
Copy CRC BBB4C2CD
Copy OK
Track 15
Filename f:\Users\Guillermo\Desktop\EAC convertidos\15 Chi mai fra gl'inni e i plausi.wav
Peak level 29.3 %
Extraction speed 2.1 X
Track quality 99.8 %
Test CRC D4132E54
Copy CRC D4132E54
Copy OK
Track 16
Filename f:\Users\Guillermo\Desktop\EAC convertidos\16 Dance of the Moorish Slaves.wav
Peak level 51.9 %
Extraction speed 1.4 X
Track quality 99.7 %
Test CRC 7D04691E
Copy CRC 7D04691E
Copy OK
Track 17
Filename f:\Users\Guillermo\Desktop\EAC convertidos\17 Vieni- sul crin ti piovano.wav
Peak level 24.3 %
Extraction speed 2.2 X
Track quality 100.0 %
Test CRC 21C61F63
Copy CRC 21C61F63
Copy OK
Track 18
Filename f:\Users\Guillermo\Desktop\EAC convertidos\18 Fu la sorte dell'armi.wav
Peak level 64.9 %
Extraction speed 2.6 X
Track quality 99.9 %
Test CRC E418074A
Copy CRC E418074A
Copy OK
Track 19
Filename f:\Users\Guillermo\Desktop\EAC convertidos\19 Pieta, ti prenda del mio dolor.wav
Peak level 55.0 %
Extraction speed 2.4 X
Track quality 100.0 %
Test CRC 5390CB41
Copy CRC 5390CB41
Copy OK
Track 20
Filename f:\Users\Guillermo\Desktop\EAC convertidos\20 Su! del Nilo al sacro lido.wav
Peak level 56.8 %
Extraction speed 2.7 X
Track quality 100.0 %
Test CRC 077305E9
Copy CRC 077305E9
Copy OK
No errors occurred
End of status report
==== Log checksum F718FA220AECEE7CBBFF0AB9510D58074BB0CBFC9927DF65F0AEB884EC9C718A ====

Лог создания рипа CD 2

Exact Audio Copy V1.0 beta 3 from 29. August 2011
EAC extraction logfile from 3. August 2015, 17:23
Guiseppe Verdi / Aida
Used drive : HL-DT-STDVDRAM GH24NSC0 Adapter: 3 ID: 0
Read mode : Secure
Utilize accurate stream : Yes
Defeat audio cache : Yes
Make use of C2 pointers : No
Read offset correction : 6
Overread into Lead-In and Lead-Out : No
Fill up missing offset samples with silence : Yes
Delete leading and trailing silent blocks : No
Null samples used in CRC calculations : Yes
Used interface : Native Win32 interface for Win NT & 2000
Gap handling : Appended to previous track
Used output format : User Defined Encoder
Selected bitrate : 768 kBit/s
Quality : High
Add ID3 tag : No
Command line compressor : C:\Program Files (x86)\Exact Audio Copy\FLAC\FLAC.EXE
Additional command line options : -8 -V -T "ARTIST=%artist%" -T "TITLE=%title%" -T "ALBUM=%albumtitle%" -T "DATE=%year%" -T "TRACKNUMBER=%tracknr%" -T "GENRE=%genre%" -T "PERFORMER=%albuminterpret%" -T "COMPOSER=%composer%" %haslyrics%--tag-from-file=LYRICS="%lyricsfile%"%haslyrics% -T "ALBUMARTIST=%albumartist%" -T "DISCNUMBER=%cdnumber%" -T "TOTALDISCS=%totalcds%" -T "TOTALTRACKS=%numtracks%" -T "COMMENT=%comment%" %source% -o %dest%
TOC of the extracted CD
Track | Start | Length | Start sector | End sector
---------------------------------------------------------
1 | 0:00.00 | 4:58.27 | 0 | 22376
2 | 4:58.27 | 4:21.45 | 22377 | 41996
3 | 9:19.72 | 2:09.08 | 41997 | 51679
4 | 11:29.05 | 1:15.25 | 51680 | 57329
5 | 12:44.30 | 0:40.12 | 57330 | 60341
6 | 13:24.42 | 1:04.48 | 60342 | 65189
7 | 14:29.15 | 1:01.27 | 65190 | 69791
8 | 15:30.42 | 3:47.38 | 69792 | 86854
9 | 19:18.05 | 2:41.25 | 86855 | 98954
10 | 21:59.30 | 1:07.62 | 98955 | 104041
11 | 23:07.17 | 1:58.25 | 104042 | 112916
12 | 25:05.42 | 2:03.05 | 112917 | 122146
13 | 27:08.47 | 2:16.43 | 122147 | 132389
14 | 29:25.15 | 1:42.42 | 132390 | 140081
15 | 31:07.57 | 5:27.68 | 140082 | 164674
16 | 36:35.50 | 1:12.55 | 164675 | 170129
17 | 37:48.30 | 1:39.20 | 170130 | 177574
18 | 39:27.50 | 2:49.27 | 177575 | 190276
19 | 42:17.02 | 2:32.40 | 190277 | 201716
20 | 44:49.42 | 1:30.00 | 201717 | 208466
21 | 46:19.42 | 1:47.50 | 208467 | 216541
22 | 48:07.17 | 4:23.38 | 216542 | 236304
23 | 52:30.55 | 0:32.17 | 236305 | 238721
24 | 53:02.72 | 1:39.73 | 238722 | 246219
25 | 54:42.70 | 1:01.35 | 246220 | 250829
26 | 55:44.30 | 1:25.70 | 250830 | 257274
27 | 57:10.25 | 0:46.42 | 257275 | 260766
Track 1
Filename f:\Users\Guillermo\Desktop\EAC convertidos\01 Gloria all'Egitto, ad Iside.wav
Pre-gap length 0:00:02.00
Peak level 66.6 %
Extraction speed 1.5 X
Track quality 100.0 %
Test CRC 26895F7D
Copy CRC 26895F7D
Copy OK
Track 2
Filename f:\Users\Guillermo\Desktop\EAC convertidos\02 Ballet.wav
Peak level 67.4 %
Extraction speed 1.7 X
Track quality 100.0 %
Test CRC 236201D9
Copy CRC 236201D9
Copy OK
Track 3
Filename f:\Users\Guillermo\Desktop\EAC convertidos\03 Vieni, o guerriero vindice.wav
Peak level 65.0 %
Extraction speed 1.5 X
Track quality 100.0 %
Test CRC DEFA5D00
Copy CRC DEFA5D00
Copy OK
Track 4
Filename f:\Users\Guillermo\Desktop\EAC convertidos\04 Salvator della patria.wav
Peak level 31.0 %
Extraction speed 1.3 X
Track quality 100.0 %
Test CRC 874560CE
Copy CRC 874560CE
Copy OK
Track 5
Filename f:\Users\Guillermo\Desktop\EAC convertidos\05 Concedi in pria.wav
Peak level 26.1 %
Extraction speed 0.6 X
Track quality 99.4 %
Test CRC EA1E40A1
Copy CRC EA1E40A1
Copy OK
Track 6
Filename f:\Users\Guillermo\Desktop\EAC convertidos\06 Che veggo! Egli Mio padre!.wav
Peak level 58.5 %
Extraction speed 1.2 X
Track quality 100.0 %
Test CRC FCD94659
Copy CRC FCD94659
Copy OK
Track 7
Filename f:\Users\Guillermo\Desktop\EAC convertidos\07 Quest'assisa ch'io vesto vi dica.wav
Peak level 48.1 %
Extraction speed 1.2 X
Track quality 100.0 %
Test CRC 1FD96694
Copy CRC 1FD96694
Copy OK
Track 8
Filename f:\Users\Guillermo\Desktop\EAC convertidos\08 Ma tu, re, tu signore possente.wav
Peak level 70.6 %
Extraction speed 1.7 X
Track quality 99.9 %
Test CRC CF767819
Copy CRC CF767819
Copy OK
Track 9
Filename f:\Users\Guillermo\Desktop\EAC convertidos\09 O re, pei sacri numi.wav
Peak level 41.1 %
Extraction speed 1.9 X
Track quality 100.0 %
Test CRC 9D108AA1
Copy CRC 9D108AA1
Copy OK
Track 10
Filename f:\Users\Guillermo\Desktop\EAC convertidos\10 Gloria all'Egitto, ad Iside.wav
Peak level 56.7 %
Extraction speed 1.5 X
Track quality 100.0 %
Test CRC 317E949E
Copy CRC 317E949E
Copy OK
Track 11
Filename f:\Users\Guillermo\Desktop\EAC convertidos\11 Fa cor- della tua patria.wav
Peak level 58.6 %
Extraction speed 1.9 X
Track quality 100.0 %
Test CRC C730957D
Copy CRC C730957D
Copy OK
Track 12
Filename f:\Users\Guillermo\Desktop\EAC convertidos\12 O tu che sei d'Osiride.wav
Pre-gap length 0:00:07.96
Peak level 28.5 %
Extraction speed 1.9 X
Track quality 100.0 %
Test CRC B4B6203A
Copy CRC B4B6203A
Copy OK
Track 13
Filename f:\Users\Guillermo\Desktop\EAC convertidos\13 Vieni d'Iside al tempio.wav
Peak level 43.1 %
Extraction speed 2.0 X
Track quality 100.0 %
Test CRC 407725B0
Copy CRC 407725B0
Copy OK
Track 14
Filename f:\Users\Guillermo\Desktop\EAC convertidos\14 Qui Radames verra!.wav
Peak level 43.3 %
Extraction speed 1.9 X
Track quality 100.0 %
Test CRC 61509BCD
Copy CRC 61509BCD
Copy OK
Track 15
Filename f:\Users\Guillermo\Desktop\EAC convertidos\15 O patria mia.wav
Peak level 54.5 %
Extraction speed 2.3 X
Track quality 99.9 %
Test CRC CFAEFE0F
Copy CRC CFAEFE0F
Copy OK
Track 16
Filename f:\Users\Guillermo\Desktop\EAC convertidos\16 Ciel! Mio padre!.wav
Peak level 40.7 %
Extraction speed 1.8 X
Track quality 100.0 %
Test CRC 612BD464
Copy CRC 612BD464
Copy OK
Track 17
Filename f:\Users\Guillermo\Desktop\EAC convertidos\17 Rivedrai le foreste imbalasamate.wav
Peak level 41.1 %
Extraction speed 2.1 X
Track quality 100.0 %
Test CRC B6026F5E
Copy CRC B6026F5E
Copy OK
Track 18
Filename f:\Users\Guillermo\Desktop\EAC convertidos\18 In armi ora si desta il popol nostro.wav
Peak level 60.7 %
Extraction speed 2.5 X
Track quality 100.0 %
Test CRC 2EC3EBA4
Copy CRC 2EC3EBA4
Copy OK
Track 19
Filename f:\Users\Guillermo\Desktop\EAC convertidos\19 Padre! A costoro schiava non sono.wav
Peak level 40.0 %
Extraction speed 2.5 X
Track quality 100.0 %
Test CRC 975A9C91
Copy CRC 975A9C91
Copy OK
Track 20
Filename f:\Users\Guillermo\Desktop\EAC convertidos\20 Pur ti riveggo, mia dolce Aida.wav
Peak level 38.9 %
Extraction speed 2.1 X
Track quality 100.0 %
Test CRC 43E6F19A
Copy CRC 43E6F19A
Copy OK
Track 21
Filename f:\Users\Guillermo\Desktop\EAC convertidos\21 Nel fiero anelito de nuova guerra.wav
Peak level 54.7 %
Extraction speed 2.3 X
Track quality 100.0 %
Test CRC 894F609A
Copy CRC 894F609A
Copy OK
Track 22
Filename f:\Users\Guillermo\Desktop\EAC convertidos\22 Fuggiam gli ardori inospiti.wav
Peak level 31.5 %
Extraction speed 2.5 X
Track quality 99.9 %
Test CRC 76B9C8FC
Copy CRC 76B9C8FC
Copy OK
Track 23
Filename f:\Users\Guillermo\Desktop\EAC convertidos\23 Aida! - Tu non m'ami.wav
Peak level 47.5 %
Extraction speed 1.3 X
Track quality 100.0 %
Test CRC 211930E8
Copy CRC 211930E8
Copy OK
Track 24
Filename f:\Users\Guillermo\Desktop\EAC convertidos\24 Ah no! Fuggiamo!.wav
Peak level 49.1 %
Extraction speed 2.3 X
Track quality 100.0 %
Test CRC 6DB47BC6
Copy CRC 6DB47BC6
Copy OK
Track 25
Filename f:\Users\Guillermo\Desktop\EAC convertidos\25 Ma, dimmi.wav
Peak level 40.6 %
Extraction speed 1.9 X
Track quality 100.0 %
Test CRC 12CDD920
Copy CRC 12CDD920
Copy OK
Track 26
Filename f:\Users\Guillermo\Desktop\EAC convertidos\26 Ah no! ti calma, ascoltami.wav
Peak level 64.2 %
Extraction speed 2.2 X
Track quality 100.0 %
Test CRC 998F2D98
Copy CRC 998F2D98
Copy OK
Track 27
Filename f:\Users\Guillermo\Desktop\EAC convertidos\27 Muori! - Arresta, insano!.wav
Peak level 68.2 %
Extraction speed 1.6 X
Track quality 100.0 %
Test CRC 44A01EEF
Copy CRC 44A01EEF
Copy OK
No errors occurred
End of status report
==== Log checksum FAE176346BDCE8993AA3A7E99E2B8B1186AF71108CF136279AE1D740912C53EC ====

Лог создания рипа CD 3

Exact Audio Copy V1.0 beta 3 from 29. August 2011
EAC extraction logfile from 3. August 2015, 18:13
Guiseppe Verdi / Aida
Used drive : HL-DT-STDVDRAM GH24NSC0 Adapter: 3 ID: 0
Read mode : Secure
Utilize accurate stream : Yes
Defeat audio cache : Yes
Make use of C2 pointers : No
Read offset correction : 6
Overread into Lead-In and Lead-Out : No
Fill up missing offset samples with silence : Yes
Delete leading and trailing silent blocks : No
Null samples used in CRC calculations : Yes
Used interface : Native Win32 interface for Win NT & 2000
Gap handling : Appended to previous track
Used output format : User Defined Encoder
Selected bitrate : 768 kBit/s
Quality : High
Add ID3 tag : No
Command line compressor : C:\Program Files (x86)\Exact Audio Copy\FLAC\FLAC.EXE
Additional command line options : -8 -V -T "ARTIST=%artist%" -T "TITLE=%title%" -T "ALBUM=%albumtitle%" -T "DATE=%year%" -T "TRACKNUMBER=%tracknr%" -T "GENRE=%genre%" -T "PERFORMER=%albuminterpret%" -T "COMPOSER=%composer%" %haslyrics%--tag-from-file=LYRICS="%lyricsfile%"%haslyrics% -T "ALBUMARTIST=%albumartist%" -T "DISCNUMBER=%cdnumber%" -T "TOTALDISCS=%totalcds%" -T "TOTALTRACKS=%numtracks%" -T "COMMENT=%comment%" %source% -o %dest%
TOC of the extracted CD
Track | Start | Length | Start sector | End sector
---------------------------------------------------------
1 | 0:00.00 | 1:28.05 | 0 | 6604
2 | 1:28.05 | 1:49.25 | 6605 | 14804
3 | 3:17.30 | 2:12.37 | 14805 | 24741
4 | 5:29.67 | 2:43.43 | 24742 | 37009
5 | 8:13.35 | 1:49.07 | 37010 | 45191
6 | 10:02.42 | 2:43.45 | 45192 | 57461
7 | 12:46.12 | 1:39.48 | 57462 | 64934
8 | 14:25.60 | 3:45.70 | 64935 | 81879
9 | 18:11.55 | 3:08.10 | 81880 | 95989
10 | 21:19.65 | 2:37.20 | 95990 | 107784
11 | 23:57.10 | 2:11.57 | 107785 | 117666
12 | 26:08.67 | 1:47.08 | 117667 | 125699
13 | 27:56.00 | 5:19.50 | 125700 | 149674
Track 1
Filename f:\Users\Guillermo\Desktop\EAC convertidos\01 L'abborrita rivale a me sfuggia.wav
Pre-gap length 0:00:02.00
Peak level 47.7 %
Extraction speed 1.0 X
Track quality 100.0 %
Test CRC E03796BE
Copy CRC E03796BE
Copy OK
Track 2
Filename f:\Users\Guillermo\Desktop\EAC convertidos\02 Io l'amo, io l'amo sempre!.wav
Peak level 24.2 %
Extraction speed 1.2 X
Track quality 100.0 %
Test CRC 354311AD
Copy CRC 354311AD
Copy OK
Track 3
Filename f:\Users\Guillermo\Desktop\EAC convertidos\03 Gia i sacerdoti adunansi.wav
Peak level 44.3 %
Extraction speed 1.3 X
Track quality 100.0 %
Test CRC E4C3F28C
Copy CRC E4C3F28C
Copy OK
Track 4
Filename f:\Users\Guillermo\Desktop\EAC convertidos\04 Ah! tu dei vivere.wav
Peak level 42.5 %
Extraction speed 1.5 X
Track quality 100.0 %
Test CRC DE0EFAE4
Copy CRC DE0EFAE4
Copy OK
Track 5
Filename f:\Users\Guillermo\Desktop\EAC convertidos\05 Chi ti salva, sciagurato.wav
Peak level 57.5 %
Extraction speed 1.4 X
Track quality 100.0 %
Test CRC C322E661
Copy CRC C322E661
Copy OK
Track 6
Filename f:\Users\Guillermo\Desktop\EAC convertidos\06 Ohime! morir mi sento.wav
Peak level 33.0 %
Extraction speed 1.7 X
Track quality 100.0 %
Test CRC BBCE2908
Copy CRC BBCE2908
Copy OK
Track 7
Filename f:\Users\Guillermo\Desktop\EAC convertidos\07 Spirto del nume, sovra noi discendi!.wav
Peak level 46.1 %
Extraction speed 1.5 X
Track quality 100.0 %
Test CRC 4BBDB328
Copy CRC 4BBDB328
Copy OK
Track 8
Filename f:\Users\Guillermo\Desktop\EAC convertidos\08 Radames! Radames! Radames!.wav
Peak level 62.6 %
Extraction speed 1.6 X
Track quality 99.9 %
Test CRC A19F1C5F
Copy CRC A19F1C5F
Copy OK
Track 9
Filename f:\Users\Guillermo\Desktop\EAC convertidos\09 A lui vivo la tomba.wav
Peak level 57.6 %
Extraction speed 2.0 X
Track quality 100.0 %
Test CRC 1DCCD594
Copy CRC 1DCCD594
Copy OK
Track 10
Filename f:\Users\Guillermo\Desktop\EAC convertidos\10 La fatal pietra sovra me si chiuse.wav
Pre-gap length 0:00:02.97
Peak level 38.4 %
Extraction speed 2.0 X
Track quality 100.0 %
Test CRC 73C420FC
Copy CRC 73C420FC
Copy OK
Track 11
Filename f:\Users\Guillermo\Desktop\EAC convertidos\11 Presago il core della tua condanna.wav
Peak level 31.0 %
Extraction speed 1.9 X
Track quality 100.0 %
Test CRC 0B5876A1
Copy CRC 0B5876A1
Copy OK
Track 12
Filename f:\Users\Guillermo\Desktop\EAC convertidos\12 Vedi Di morte l'angelo.wav
Peak level 45.5 %
Extraction speed 1.8 X
Track quality 100.0 %
Test CRC D4FDCFF0
Copy CRC D4FDCFF0
Copy OK
Track 13
Filename f:\Users\Guillermo\Desktop\EAC convertidos\13 O terra, addio.wav
Peak level 35.3 %
Extraction speed 2.5 X
Track quality 100.0 %
Test CRC 958F8DA2
Copy CRC 958F8DA2
Copy OK
No errors occurred
End of status report
==== Log checksum FD4316C8BC01E5D5CE965CDB9431029DEE4AC0EB8F7B6341E81DBCB062F1F35F ====

Содержание индексной карты (.CUE)Содержание индексной карты (.CUE) CD 1

REM GENRE Opera
REM DATE 1955
REM DISCID 120D6214
REM COMMENT "ExactAudioCopy v1.0b3"
FILE "01 Prelude.wav" WAVE
TRACK 01 AUDIO
INDEX 01 00:00:00
FILE "02 Si- corre voce che l'Etiope.wav" WAVE
TRACK 02 AUDIO
INDEX 01 00:00:00
FILE "03 Se quel guerrier; Celeste Aida.wav" WAVE
TRACK 03 AUDIO
INDEX 01 00:00:00
FILE "04 Quale insolita gioia nel tuo sguardo.wav" WAVE
TRACK 04 AUDIO
INDEX 01 00:00:00
FILE "05 Dessa!.wav" WAVE
TRACK 05 AUDIO
INDEX 01 00:00:00
FILE "06 Ohime! Di guerra fremere.wav" WAVE
TRACK 06 AUDIO
INDEX 01 00:00:00
FILE "07 Alta cagion v'aduna.wav" WAVE
TRACK 07 AUDIO
INDEX 01 00:00:00
FILE "08 Il sacro suolo dell'Egitto e invaso.wav" WAVE
TRACK 08 AUDIO
INDEX 01 00:00:00
FILE "09 Su! del Nilo al sacro lido.wav" WAVE
TRACK 09 AUDIO
INDEX 01 00:00:00
FILE "10 Ritorna vincitor!.wav" WAVE
TRACK 10 AUDIO
INDEX 01 00:00:00
FILE "11 Possente, possente Ftha.wav" WAVE
TRACK 11 AUDIO
INDEX 01 00:00:00
FILE "12 Sacred Dance of the Priestesses.wav" WAVE
TRACK 12 AUDIO
INDEX 01 00:00:00
FILE "13 Mortal, diletto ai numi.wav" WAVE
TRACK 13 AUDIO
INDEX 01 00:00:00
FILE "14 Nume, custode e vindice.wav" WAVE
TRACK 14 AUDIO
INDEX 01 00:00:00
FILE "15 Chi mai fra gl'inni e i plausi.wav" WAVE
TRACK 15 AUDIO
INDEX 01 00:00:00
FILE "16 Dance of the Moorish Slaves.wav" WAVE
TRACK 16 AUDIO
INDEX 01 00:00:00
FILE "17 Vieni- sul crin ti piovano.wav" WAVE
TRACK 17 AUDIO
INDEX 01 00:00:00
FILE "18 Fu la sorte dell'armi.wav" WAVE
TRACK 18 AUDIO
INDEX 01 00:00:00
FILE "19 Pieta, ti prenda del mio dolor.wav" WAVE
TRACK 19 AUDIO
INDEX 01 00:00:00
FILE "20 Su! del Nilo al sacro lido.wav" WAVE
TRACK 20 AUDIO
INDEX 01 00:00:00

Содержание индексной карты (.CUE) CD 2

REM GENRE Opera
REM DATE 1955
REM DISCID 950D941B
REM COMMENT "ExactAudioCopy v1.0b3"
FILE "01 Gloria all'Egitto, ad Iside.wav" WAVE
TRACK 01 AUDIO
INDEX 01 00:00:00
FILE "02 Ballet.wav" WAVE
TRACK 02 AUDIO
INDEX 01 00:00:00
FILE "03 Vieni, o guerriero vindice.wav" WAVE
TRACK 03 AUDIO
INDEX 01 00:00:00
FILE "04 Salvator della patria.wav" WAVE
TRACK 04 AUDIO
INDEX 01 00:00:00
FILE "05 Concedi in pria.wav" WAVE
TRACK 05 AUDIO
INDEX 01 00:00:00
FILE "06 Che veggo! Egli Mio padre!.wav" WAVE
TRACK 06 AUDIO
INDEX 01 00:00:00
FILE "07 Quest'assisa ch'io vesto vi dica.wav" WAVE
TRACK 07 AUDIO
INDEX 01 00:00:00
FILE "08 Ma tu, re, tu signore possente.wav" WAVE
TRACK 08 AUDIO
INDEX 01 00:00:00
FILE "09 O re, pei sacri numi.wav" WAVE
TRACK 09 AUDIO
INDEX 01 00:00:00
FILE "10 Gloria all'Egitto, ad Iside.wav" WAVE
TRACK 10 AUDIO
INDEX 01 00:00:00
FILE "11 Fa cor- della tua patria.wav" WAVE
TRACK 11 AUDIO
INDEX 01 00:00:00
TRACK 12 AUDIO
INDEX 00 01:50:28
FILE "12 O tu che sei d'Osiride.wav" WAVE
INDEX 01 00:00:00
FILE "13 Vieni d'Iside al tempio.wav" WAVE
TRACK 13 AUDIO
INDEX 01 00:00:00
FILE "14 Qui Radames verra!.wav" WAVE
TRACK 14 AUDIO
INDEX 01 00:00:00
FILE "15 O patria mia.wav" WAVE
TRACK 15 AUDIO
INDEX 01 00:00:00
FILE "16 Ciel! Mio padre!.wav" WAVE
TRACK 16 AUDIO
INDEX 01 00:00:00
FILE "17 Rivedrai le foreste imbalasamate.wav" WAVE
TRACK 17 AUDIO
INDEX 01 00:00:00
FILE "18 In armi ora si desta il popol nostro.wav" WAVE
TRACK 18 AUDIO
INDEX 01 00:00:00
FILE "19 Padre! A costoro schiava non sono.wav" WAVE
TRACK 19 AUDIO
INDEX 01 00:00:00
FILE "20 Pur ti riveggo, mia dolce Aida.wav" WAVE
TRACK 20 AUDIO
INDEX 01 00:00:00
FILE "21 Nel fiero anelito de nuova guerra.wav" WAVE
TRACK 21 AUDIO
INDEX 01 00:00:00
FILE "22 Fuggiam gli ardori inospiti.wav" WAVE
TRACK 22 AUDIO
INDEX 01 00:00:00
FILE "23 Aida! - Tu non m'ami.wav" WAVE
TRACK 23 AUDIO
INDEX 01 00:00:00
FILE "24 Ah no! Fuggiamo!.wav" WAVE
TRACK 24 AUDIO
INDEX 01 00:00:00
FILE "25 Ma, dimmi.wav" WAVE
TRACK 25 AUDIO
INDEX 01 00:00:00
FILE "26 Ah no! ti calma, ascoltami.wav" WAVE
TRACK 26 AUDIO
INDEX 01 00:00:00
FILE "27 Muori! - Arresta, insano!.wav" WAVE
TRACK 27 AUDIO
INDEX 01 00:00:00

Содержание индексной карты (.CUE) CD 3

REM GENRE Opera
REM DATE 1955
REM DISCID B807CB0D
REM COMMENT "ExactAudioCopy v1.0b3"
FILE "01 L'abborrita rivale a me sfuggia.wav" WAVE
TRACK 01 AUDIO
INDEX 01 00:00:00
FILE "02 Io l'amo, io l'amo sempre!.wav" WAVE
TRACK 02 AUDIO
INDEX 01 00:00:00
FILE "03 Gia i sacerdoti adunansi.wav" WAVE
TRACK 03 AUDIO
INDEX 01 00:00:00
FILE "04 Ah! tu dei vivere.wav" WAVE
TRACK 04 AUDIO
INDEX 01 00:00:00
FILE "05 Chi ti salva, sciagurato.wav" WAVE
TRACK 05 AUDIO
INDEX 01 00:00:00
FILE "06 Ohime! morir mi sento.wav" WAVE
TRACK 06 AUDIO
INDEX 01 00:00:00
FILE "07 Spirto del nume, sovra noi discendi!.wav" WAVE
TRACK 07 AUDIO
INDEX 01 00:00:00
FILE "08 Radames! Radames! Radames!.wav" WAVE
TRACK 08 AUDIO
INDEX 01 00:00:00
FILE "09 A lui vivo la tomba.wav" WAVE
TRACK 09 AUDIO
INDEX 01 00:00:00
TRACK 10 AUDIO
INDEX 00 03:05:12
FILE "10 La fatal pietra sovra me si chiuse.wav" WAVE
INDEX 01 00:00:00
FILE "11 Presago il core della tua condanna.wav" WAVE
TRACK 11 AUDIO
INDEX 01 00:00:00
FILE "12 Vedi Di morte l'angelo.wav" WAVE
TRACK 12 AUDIO
INDEX 01 00:00:00
FILE "13 O terra, addio.wav" WAVE
TRACK 13 AUDIO
INDEX 01 00:00:00

Треклист

Disc 1:
1. Preludio
Act I:
2. Sî: Corre Voce Che L'etiope
3. Se Quel Guerrier Io Fossi! Celeste Aida
5. Quale insolita gioia nel tuo sguardo
6. Dessa!
7. Ohime! di guerra fremere
8. Alta cagion v'aduna
9. Il sacro suolo dell'Egitto e invaso
10. Su! del Nilo al sacro lido
11. Ritorna vincitor!
12. Possente, possente Ftha, del mondo
13. Immenso Fthà!
14. Mortal, diletto ai Numi
15. Nume, custode e vindice
Act II:
16. Chi mai fra gl'inni e i plausi
17. Dance of the Moorish Slaves
18. Vieni, sul crin ti piovano
19. Fu la sorte dell'armi a' tuoi funesta
20. Pieta ti prenda del mio dolor
21. Su! del Nilo al sacro lido... Numi, pieta
Disc 2:
1. Gloria all' Egitto, ad Iside
2. Ballet
3. Vieni, o guerriero vindice
4. Salvator della patria
5. Concedi in pria che innanzi a te sien tratti
6. Che veggo! Egli? Mio padre!.... Ma tu, Re, tu signore possente
7. Quest'assisa
8. Ma tu, o Re, tu signore possente
9. O Re: pei sacri Numi
10. Gloria all'egitto, ad Iside
11. Fa cor: della tua patria
Act III:
12. O tu che sei d'Osiride
13. Vieni d'Iside al tempio: all vigilia
14. Qui Radamès verrà!...
15. O patria mia, mai più ti revedrò!
16. Ciel! mio padre!
17. Rivedrai le foreste imbalsamate
18. In armi ora si desta Il popol nostro
19. Ah! Padre!
20. Pur ti riveggo, mia dolce Aida...
21. Nel fiero anelito di nuova guerra
22. Fuggiam gli ardori inospiti
23. Aida!
24. Sì, fuggiam da queste mura
25. Ma dimmi
26. Ah no! ti calma, ascoltami...
27. Arresta, insano!...
Disc 3:
Act IV:
1. L'aborrita rivale a me sfuggia...
2. Io l'amo, Io l'amo sempre...
3. Già i Sacerdoti adunansi
4. Ah, tu dêi vivere!
5. Chi ti salva, sciagurato
6. Ohimè!... morir mi sento!
7. Spirto del Nume, sovra noi discendi!
8. Radames!
9. A lui vivo la tomba...
10. La fatal pietra sovra me si chiuse...
11. Presago il core della tua condanna
12. Vedi?... di morte l'angelo
13. O terra, addio



Показать сообщения:    

Текущее время: 07-Дек 19:27

Часовой пояс: UTC + 3


Вы не можете начинать темы
Вы не можете отвечать на сообщения
Вы не можете редактировать свои сообщения
Вы не можете удалять свои сообщения
Вы не можете голосовать в опросах
Вы не можете прикреплять файлы к сообщениям
Вы не можете скачивать файлы