[TR24][OF] Mozart: Opera Arias and Overtures - Le nozze di Figaro, Idomeneo, Don Giovanni, La clemenza di Tito, Così fan tutte (Elizabeth Watts, Scottish Chamber Orchestra & Christian Baldini) - 2015 (Classical, Vocal, Opera)


Статистика раздачи [Обновить пиров]
Размер:  1.1 GB   |    Зарегистрирован:  10 месяцев   |    Скачан:  1 раз

Полного источника не было: 2 месяца 7 дней

 
   
 
 
 

[Цитировать]

Elizabeth Watts, Scottish Chamber Orchestra & Christian Baldini / Mozart: Opera Arias and Overtures
Формат записи/Источник записи: [TR24][OF]
Наличие водяных знаков: Нет
Год издания/переиздания диска: 2015
Жанр: Opera
Издатель(лейбл): Linn Records
Продолжительность: 01:02:13
Исполнители:
Elizabeth Watts, soprano,
Christian Baldini, Conductor,
Scottish Chamber Orchestra.
Контейнер: FLAC (*.flac)
Тип рипа: tracks
Разрядность: 24/96
Количество каналов: 2.0
Источник: Linn Records

Треклист

Operas by Wolfgang Amadeus Mozart:
1. Le nozze di Figaro: Overture
2. Le nozze di Figaro: Giunse alfin – Deh vieni non tardar
3. Idomeneo: Overture
4. Idomeneo: Quanti mi siete intorno – Padre, germani, addio!
5. Don Giovanni: Overture
6. Don Giovanni: Batti, batti
7. Don Giovanni: Vedrai, carino
8. La clemenza di Tito: Overture
9. La clemenza di Tito: S'altro che lacrime
10. La finta giardiniera: Overture
11. La finta giardiniera: Appena mi vedon
12. Così fan tutte: Overture
13. Così fan tutte: Ei parte – Per pietà

Dynamic Range Meter

foobar2000 1.3.6 / Замер динамического диапазона (DR) 1.1.1
Дата отчёта: 2015-08-11 00:40:13
--------------------------------------------------------------------------------
Анализ: Scottish Chamber Orchestra / Mozart: Opera Arias and Overtures
--------------------------------------------------------------------------------
DR Пики RMS Продолжительность трека
--------------------------------------------------------------------------------
DR14 -0.46 дБ -19.39 дБ 4:12 01-Le nozze di Figaro: Overture
DR14 -3.02 дБ -24.88 дБ 4:52 02-Le nozze di Figaro: Giunse alfin – Deh vieni non tardar
DR13 -1.78 дБ -19.20 дБ 4:32 03-Idomeneo: Overture
DR14 -0.93 дБ -19.10 дБ 4:37 04-Idomeneo: Quanti mi siete intorno – Padre, germani, addio!
DR14 -0.50 дБ -20.12 дБ 5:49 05-Don Giovanni: Overture
DR14 -0.65 дБ -20.11 дБ 4:06 06-Don Giovanni: Batti, batti
DR14 -1.63 дБ -21.27 дБ 3:37 07-Don Giovanni: Vedrai, carino
DR13 -1.01 дБ -18.81 дБ 4:30 08-La clemenza di Tito: Overture
DR12 -3.94 дБ -20.07 дБ 2:50 09-La clemenza di Tito: S'altro che lacrime
DR13 -5.25 дБ -24.04 дБ 4:40 10-La finta giardiniera: Overture
DR14 -0.92 дБ -20.52 дБ 4:33 11-La finta giardiniera: Appena mi vedon
DR14 -1.14 дБ -20.50 дБ 4:33 12-Così fan tutte: Overture
DR15 -0.92 дБ -20.96 дБ 9:28 13-Così fan tutte: Ei parte – Per pietà
--------------------------------------------------------------------------------
Количество треков: 13
Реальные значения DR: DR14
Частота: 96000 Гц
Каналов: 2
Разрядность: 24
Битрейт: 2427 кбит/с
Кодек: FLAC
================================================================================
[teatrix.ru].t21970.torrent 
Торрент: Зарегистрирован [ 2016-03-20 12:48 ] · 8682B0127F6AC0CFC63A3698A3C0C05FC5C646AD

Скачать .torrent

Скачать

12 KB

Статус: проверено
Скачан: 1 раз
Размер: 1.1 GB
terms.php



Быстрый ответ

Имя:

      
Для отправки сообщений необходимо включить JavaScript
Показать сообщения:    

Текущее время: 20-Янв 14:50

Часовой пояс: UTC + 3


Вы можете начинать темы
Вы можете отвечать на сообщения
Вы не можете редактировать свои сообщения
Вы не можете удалять свои сообщения
Вы не можете голосовать в опросах
Вы не можете прикреплять файлы к сообщениям
Вы можете скачивать файлы