(Opera) Pacini - Saffo / Пачини - Сафо (Gencer, del Bianco, Quilico, Mattiucci - Orchestra & Chorus of Teatro San Carlo Naples, Capuana) - 2006, APE (image+.cue) lossless


 

[Цитировать]

Giovanni Pacini - Saffo
Жанр: Opera
Страна-производитель диска: Eu
Год издания диска: 2006
Издатель (лейбл): Opera D'Oro
Номер по каталогу: OPD-1450
Дата записи: 1967
Аудиокодек: APE
Тип рипа: image+.cue
Битрейт аудио: lossless
Продолжительность: 61'57+58'44
Источник: собственный рип
Наличие сканов в содержимом раздачи: да
Треклист:

CD1

01. Act 1. Prelude & Choral Introduction. Divini carmi!
02. Act 1. Che avvenne
03. Act 1. Di sua voce
04. Act 1. Faon vienne
05. Act 1. Perchè Faon dal circo
06. Act 1. Qual io t'aborro
07. Act 2. Al crin le cingete
08. Act 2. Ah! Con lui mi fu rapita
09. Act 2. Uno stranier!
10. Act 2. Corri all'altar
11. Act 2. Le cetre, le tibie
12. Act 2. Ai mortali
13. Act 2. Saffo! Qui siamo in Leucade!

CD2

01. Act 3. Voci del ciel
02. Act 3. Signor di Leucade
03. Act 3. Oh, padre mio!... Figlia!
04. Act 3. Alcandro, il rito
05. Act 3. Fra queste orrende tenebre... Qual frutto acerbo
06. Act 3. Ite ad Alcandro
07. Act 3. S'ella paventa
08. Act 3. Premio d'amor
09. Act 3. Mi lasciate
Исполнители:
Giovanni Pacini - Saffo
Saffo - Leyla Gencer (Soprano)
Climene - Franca Mattiucci (Mezzo Soprano)
Faone - Tito Del Bianco (Tenor)
Ippia - Mario Guggia (Tenor)
Alcandro - Louis Quilico (Baritone)
Dirce - Vittoria Maniachi (Soprano)
Lisimaco - Maurizio Piacente (Bass)
Orchestra & Chorus of Teatro San Carlo Naples
Franco Capuana

Лог создания рипа

CD1

Exact Audio Copy V1.0 beta 3 from 29. August 2011
EAC extraction logfile from 25. August 2014, 13:21
Pacini / Saffo, Capuana CD1
Used drive : TS8XDVDSTRANSCEND Adapter: 1 ID: 1
Read mode : Secure
Utilize accurate stream : Yes
Defeat audio cache : Yes
Make use of C2 pointers : No
Read offset correction : 6
Overread into Lead-In and Lead-Out : No
Fill up missing offset samples with silence : Yes
Delete leading and trailing silent blocks : No
Null samples used in CRC calculations : Yes
Used interface : Native Win32 interface for Win NT & 2000
Used output format : Monkey's Audio Lossless Encoder
Selected bitrate : High Lossless Compression
Quality : High
Add ID3 tag : No
Command line compressor : C:\Program Files (x86)\Exact Audio Copy\MAC\MAC.exe
TOC of the extracted CD
Track | Start | Length | Start sector | End sector
---------------------------------------------------------
1 | 0:00.00 | 4:33.68 | 0 | 20542
2 | 4:33.68 | 3:22.10 | 20543 | 35702
3 | 7:56.03 | 4:34.32 | 35703 | 56284
4 | 12:30.35 | 3:50.03 | 56285 | 73537
5 | 16:20.38 | 9:52.20 | 73538 | 117957
6 | 26:12.58 | 2:37.70 | 117958 | 129802
7 | 28:50.53 | 3:35.42 | 129803 | 145969
8 | 32:26.20 | 5:25.03 | 145970 | 170347
9 | 37:51.23 | 9:20.05 | 170348 | 212352
10 | 47:11.28 | 5:29.07 | 212353 | 237034
11 | 52:40.35 | 7:17.65 | 237035 | 269874
12 | 59:58.25 | 6:19.53 | 269875 | 298352
13 | 66:18.03 | 5:39.22 | 298353 | 323799
Range status and errors
Selected range
Filename D:\EAC\Pacini - Saffo, Capuana CD1.wav
Peak level 75.3 %
Extraction speed 3.4 X
Range quality 99.9 %
Test CRC 4E345ECB
Copy CRC 4E345ECB
Copy OK
No errors occurred
AccurateRip summary
Track 1 accurately ripped (confidence 1) [8744896A] (AR v1)
Track 2 accurately ripped (confidence 1) [C088A409] (AR v1)
Track 3 accurately ripped (confidence 1) [9CD649BE] (AR v1)
Track 4 accurately ripped (confidence 1) [4BCCFFC2] (AR v1)
Track 5 accurately ripped (confidence 1) [A2C9E445] (AR v1)
Track 6 accurately ripped (confidence 1) [5A0EDED7] (AR v1)
Track 7 accurately ripped (confidence 1) [5613DA48] (AR v1)
Track 8 accurately ripped (confidence 1) [7A66BDD4] (AR v1)
Track 9 accurately ripped (confidence 1) [7F53B146] (AR v1)
Track 10 accurately ripped (confidence 1) [33E68B1B] (AR v1)
Track 11 accurately ripped (confidence 1) [3738A40F] (AR v1)
Track 12 accurately ripped (confidence 1) [EC4F43F1] (AR v1)
Track 13 accurately ripped (confidence 1) [EAD89A95] (AR v1)
All tracks accurately ripped
End of status report
---- CUETools DB Plugin V2.1.3
[CTDB TOCID: VP4x7EksSeTqBZ.JwS7f5isMWvs-] found, Submit result: unrecognized or virtual drive
[174ce7e0] (3/3) Accurately ripped
==== Log checksum 6E5EF6A60408819F78534B624B7C8C44E1F9F0643FCB690BBC1B99653B72AC85 ====

CD2

Exact Audio Copy V1.0 beta 3 from 29. August 2011
EAC extraction logfile from 25. August 2014, 13:15
Pacini / Saffo, Capuana CD2
Used drive : TSSTcorpCDDVDW SE-208AB Adapter: 1 ID: 0
Read mode : Secure
Utilize accurate stream : Yes
Defeat audio cache : Yes
Make use of C2 pointers : No
Read offset correction : 6
Overread into Lead-In and Lead-Out : No
Fill up missing offset samples with silence : Yes
Delete leading and trailing silent blocks : No
Null samples used in CRC calculations : Yes
Used interface : Native Win32 interface for Win NT & 2000
Used output format : Monkey's Audio Lossless Encoder
Selected bitrate : High Lossless Compression
Quality : High
Add ID3 tag : No
Command line compressor : C:\Program Files (x86)\Exact Audio Copy\MAC\MAC.exe
TOC of the extracted CD
Track | Start | Length | Start sector | End sector
---------------------------------------------------------
1 | 0:00.00 | 4:48.55 | 0 | 21654
2 | 4:48.55 | 10:30.53 | 21655 | 68957
3 | 15:19.33 | 4:28.67 | 68958 | 89124
4 | 19:48.25 | 7:25.45 | 89125 | 122544
5 | 27:13.70 | 7:49.48 | 122545 | 157767
6 | 35:03.43 | 3:47.25 | 157768 | 174817
7 | 38:50.68 | 6:20.32 | 174818 | 203349
8 | 45:11.25 | 8:09.18 | 203350 | 240042
9 | 53:20.43 | 5:33.37 | 240043 | 265054
Range status and errors
Selected range
Filename D:\EAC\Pacini - Saffo, Capuana CD2.wav
Peak level 86.5 %
Extraction speed 1.9 X
Range quality 100.0 %
Test CRC C55A5AD5
Copy CRC C55A5AD5
Copy OK
No errors occurred
AccurateRip summary
Track 1 accurately ripped (confidence 1) [3D6BC7CA] (AR v1)
Track 2 accurately ripped (confidence 1) [F35C1652] (AR v1)
Track 3 accurately ripped (confidence 1) [173D7F0E] (AR v1)
Track 4 accurately ripped (confidence 1) [B5F3D82E] (AR v1)
Track 5 accurately ripped (confidence 1) [B91FD42C] (AR v1)
Track 6 accurately ripped (confidence 1) [7ECF62EE] (AR v1)
Track 7 accurately ripped (confidence 1) [F6AACFFE] (AR v1)
Track 8 accurately ripped (confidence 1) [9EB6CF3B] (AR v1)
Track 9 accurately ripped (confidence 1) [CB1FE267] (AR v1)
All tracks accurately ripped
End of status report
---- CUETools DB Plugin V2.1.3
[CTDB TOCID: nzDDc8auX9fDvkuKi.eybKdbOWE-] found, Submit result: nzDDc8auX9fDvkuKi.eybKdbOWE- has been confirmed
[52ea4fb2] (3/3) Accurately ripped
==== Log checksum 7203CC296E453E3D2A526BF7EAA11F827A6444821A0ACBDB2B2F346CFB29DAD8 ====

Содержание индексной карты (.CUE)

CD1

REM GENRE Opera
REM DATE 1967
REM DISCID BF10DD0D
REM COMMENT "ExactAudioCopy v1.0b3"
PERFORMER "Pacini"
TITLE "Saffo, Capuana CD1 "
FILE "Pacini - Saffo, Capuana CD1.ape" WAVE
TRACK 01 AUDIO
TITLE "Act 1. Prelude & Choral Introduction. Divini carmi!"
PERFORMER "Pacini"
INDEX 01 00:00:00
TRACK 02 AUDIO
TITLE "Act 1. Che avvenne"
PERFORMER "Pacini"
INDEX 00 04:31:68
INDEX 01 04:33:68
TRACK 03 AUDIO
TITLE "Act 1. Di sua voce"
PERFORMER "Pacini"
INDEX 00 07:54:03
INDEX 01 07:56:03
TRACK 04 AUDIO
TITLE "Act 1. Faon vienne"
PERFORMER "Pacini"
INDEX 00 12:28:35
INDEX 01 12:30:35
TRACK 05 AUDIO
TITLE "Act 1. Perchè Faon dal circo"
PERFORMER "Pacini"
INDEX 00 16:18:38
INDEX 01 16:20:38
TRACK 06 AUDIO
TITLE "Act 1. Qual io t'aborro"
PERFORMER "Pacini"
INDEX 00 26:10:58
INDEX 01 26:12:58
TRACK 07 AUDIO
TITLE "Act 2. Al crin le cingete"
PERFORMER "Pacini"
INDEX 00 28:48:53
INDEX 01 28:50:53
TRACK 08 AUDIO
TITLE "Act 2. Ah! Con lui mi fu rapita"
PERFORMER "Pacini"
INDEX 00 32:24:20
INDEX 01 32:26:20
TRACK 09 AUDIO
TITLE "Act 2. Uno stranier!"
PERFORMER "Pacini"
INDEX 00 37:49:23
INDEX 01 37:51:23
TRACK 10 AUDIO
TITLE "Act 2. Corri all'altar"
PERFORMER "Pacini"
INDEX 00 47:09:28
INDEX 01 47:11:28
TRACK 11 AUDIO
TITLE "Act 2. Le cetre, le tibie"
PERFORMER "Pacini"
INDEX 00 52:38:35
INDEX 01 52:40:35
TRACK 12 AUDIO
TITLE "Act 2. Ai mortali"
PERFORMER "Pacini"
INDEX 00 59:56:25
INDEX 01 59:58:25
TRACK 13 AUDIO
TITLE "Act 2. Saffo! Qui siamo in Leucade!"
PERFORMER "Pacini"
INDEX 00 66:16:03
INDEX 01 66:18:03

CD2

REM GENRE Opera
REM DATE 1967
REM DISCID 590DCE09
REM COMMENT "ExactAudioCopy v1.0b3"
PERFORMER "Pacini"
TITLE "Saffo, Capuana CD2"
FILE "Pacini - Saffo, Capuana CD2.ape" WAVE
TRACK 01 AUDIO
TITLE "Act 3. Voci del ciel"
PERFORMER "Pacini"
INDEX 01 00:00:00
TRACK 02 AUDIO
TITLE "Act 3. Signor di Leucade"
PERFORMER "Pacini"
INDEX 00 04:46:55
INDEX 01 04:48:55
TRACK 03 AUDIO
TITLE "Act 3. Oh, padre mio!... Figlia!"
PERFORMER "Pacini"
INDEX 00 15:17:33
INDEX 01 15:19:33
TRACK 04 AUDIO
TITLE "Act 3. Alcandro, il rito"
PERFORMER "Pacini"
INDEX 00 19:46:25
INDEX 01 19:48:25
TRACK 05 AUDIO
TITLE "Act 3. Fra queste orrende tenebre... Qual frutto acerbo"
PERFORMER "Pacini"
INDEX 00 27:11:70
INDEX 01 27:13:70
TRACK 06 AUDIO
TITLE "Act 3. Ite ad Alcandro"
PERFORMER "Pacini"
INDEX 00 35:01:43
INDEX 01 35:03:43
TRACK 07 AUDIO
TITLE "Act 3. S'ella paventa"
PERFORMER "Pacini"
INDEX 00 38:48:68
INDEX 01 38:50:68
TRACK 08 AUDIO
TITLE "Act 3. Premio d'amor"
PERFORMER "Pacini"
INDEX 00 45:09:25
INDEX 01 45:11:25
TRACK 09 AUDIO
TITLE "Act 3. Mi lasciate"
PERFORMER "Pacini"
INDEX 00 53:18:43
INDEX 01 53:20:43



Показать сообщения:    

Текущее время: 03-Дек 14:34

Часовой пояс: UTC + 3


Вы не можете начинать темы
Вы не можете отвечать на сообщения
Вы не можете редактировать свои сообщения
Вы не можете удалять свои сообщения
Вы не можете голосовать в опросах
Вы не можете прикреплять файлы к сообщениям
Вы не можете скачивать файлы