(Opera, Vocal) Compilation of 34 version of stretta "Di quella pira" from Verdi's Il Trovatore (Performed by Caruso, Lauri-Volpi, Pertile, Lazaro, Bjorling, Gigli, Soler, Salvarezza, Filippeschi), 1903-1956 - Studio / 1991 -FLAC(tracks+.cue


 

[Цитировать]

Compilation of 34 version of stretta "Di quella pira" from Verdi's Il Trovatore (Performed by Caruso, Lauri-Volpi, Pertile, Lazaro, Bjorling, Gigli, Soler, Salvarezza, Filippeschi)
Жанр: Opera, Vocal
Страна-производитель диска: Италия
Год издания диска: 1991
Издатель (лейбл): Bongiovanni
Дата записи: 1903-1956
Аудиокодек: FLAC
Тип рипа: tracks+.cue
Битрейт аудио: lossless
Продолжительность: 71:56
Источник: релизер (Guillermo)
Collection of Studio recordings, made in various periods by famous tenors of world Opera stage. Sparkling Bongiovanni's tribute to the glorious Verdi's cabaletta.

Лог создания рипа

Exact Audio Copy V1.0 beta 3 from 29. August 2011
EAC extraction logfile from 2. August 2015, 20:03
Artista desconocido / Título desconocido
Used drive : HL-DT-STDVDRAM GH24NSC0 Adapter: 3 ID: 0
Read mode : Secure
Utilize accurate stream : Yes
Defeat audio cache : Yes
Make use of C2 pointers : No
Read offset correction : 6
Overread into Lead-In and Lead-Out : No
Fill up missing offset samples with silence : Yes
Delete leading and trailing silent blocks : No
Null samples used in CRC calculations : Yes
Used interface : Native Win32 interface for Win NT & 2000
Gap handling : Appended to previous track
Used output format : User Defined Encoder
Selected bitrate : 768 kBit/s
Quality : High
Add ID3 tag : No
Command line compressor : C:\Program Files (x86)\Exact Audio Copy\FLAC\FLAC.EXE
Additional command line options : -8 -V -T "ARTIST=%artist%" -T "TITLE=%title%" -T "ALBUM=%albumtitle%" -T "DATE=%year%" -T "TRACKNUMBER=%tracknr%" -T "GENRE=%genre%" -T "PERFORMER=%albuminterpret%" -T "COMPOSER=%composer%" %haslyrics%--tag-from-file=LYRICS="%lyricsfile%"%haslyrics% -T "ALBUMARTIST=%albumartist%" -T "DISCNUMBER=%cdnumber%" -T "TOTALDISCS=%totalcds%" -T "TOTALTRACKS=%numtracks%" -T "COMMENT=%comment%" %source% -o %dest%
TOC of the extracted CD
Track | Start | Length | Start sector | End sector
---------------------------------------------------------
1 | 0:00.00 | 1:35.49 | 0 | 7173
2 | 1:35.49 | 1:42.53 | 7174 | 14876
3 | 3:18.27 | 1:59.71 | 14877 | 23872
4 | 5:18.23 | 2:50.37 | 23873 | 36659
5 | 8:08.60 | 1:45.34 | 36660 | 44568
6 | 9:54.19 | 2:55.74 | 44569 | 57767
7 | 12:50.18 | 1:55.48 | 57768 | 66440
8 | 14:45.66 | 1:37.46 | 66441 | 73761
9 | 16:23.37 | 1:39.43 | 73762 | 81229
10 | 18:03.05 | 1:47.02 | 81230 | 89256
11 | 19:50.07 | 2:43.63 | 89257 | 101544
12 | 22:33.70 | 3:00.51 | 101545 | 115095
13 | 25:34.46 | 1:32.10 | 115096 | 122005
14 | 27:06.56 | 1:35.20 | 122006 | 129150
15 | 28:42.01 | 3:06.13 | 129151 | 143113
16 | 31:48.14 | 3:00.22 | 143114 | 156635
17 | 34:48.36 | 1:30.13 | 156636 | 163398
18 | 36:18.49 | 1:31.55 | 163399 | 170278
19 | 37:50.29 | 3:03.32 | 170279 | 184035
20 | 40:53.61 | 2:19.41 | 184036 | 194501
21 | 43:13.27 | 1:57.16 | 194502 | 203292
22 | 45:10.43 | 2:56.58 | 203293 | 216550
23 | 48:07.26 | 2:08.72 | 216551 | 226222
24 | 50:16.23 | 2:07.30 | 226223 | 235777
25 | 52:23.53 | 1:43.08 | 235778 | 243510
26 | 54:06.61 | 1:50.12 | 243511 | 251772
27 | 55:56.73 | 1:39.43 | 251773 | 259240
28 | 57:36.41 | 2:57.12 | 259241 | 272527
29 | 60:33.53 | 2:23.35 | 272528 | 283287
30 | 62:57.13 | 1:45.05 | 283288 | 291167
31 | 64:42.18 | 2:10.69 | 291168 | 300986
32 | 66:53.12 | 2:04.20 | 300987 | 310306
33 | 68:57.32 | 1:54.64 | 310307 | 318920
34 | 70:52.21 | 2:05.59 | 318921 | 328354
Track 1
Filename f:\Users\Guillermo\Desktop\EAC convertidos\01 Pista01.wav
Pre-gap length 0:00:02.00
Peak level 87.1 %
Extraction speed 1.3 X
Track quality 100.0 %
Test CRC E3DE0531
Copy CRC E3DE0531
Copy OK
Track 2
Filename f:\Users\Guillermo\Desktop\EAC convertidos\02 Pista02.wav
Pre-gap length 0:00:02.00
Peak level 56.0 %
Extraction speed 1.3 X
Track quality 100.0 %
Test CRC F52822A0
Copy CRC F52822A0
Copy OK
Track 3
Filename f:\Users\Guillermo\Desktop\EAC convertidos\03 Pista03.wav
Pre-gap length 0:00:02.00
Peak level 73.5 %
Extraction speed 1.5 X
Track quality 100.0 %
Test CRC 439B5C4C
Copy CRC 439B5C4C
Copy OK
Track 4
Filename f:\Users\Guillermo\Desktop\EAC convertidos\04 Pista04.wav
Pre-gap length 0:00:02.00
Peak level 79.5 %
Extraction speed 1.4 X
Track quality 99.8 %
Test CRC C899B84F
Copy CRC C899B84F
Copy OK
Track 5
Filename f:\Users\Guillermo\Desktop\EAC convertidos\05 Pista05.wav
Pre-gap length 0:00:02.00
Peak level 50.5 %
Extraction speed 1.1 X
Track quality 99.7 %
Test CRC F747BBC2
Copy CRC F747BBC2
Copy OK
Track 6
Filename f:\Users\Guillermo\Desktop\EAC convertidos\06 Pista06.wav
Pre-gap length 0:00:02.00
Peak level 73.2 %
Extraction speed 1.9 X
Track quality 100.0 %
Test CRC CC6824E1
Copy CRC CC6824E1
Copy OK
Track 7
Filename f:\Users\Guillermo\Desktop\EAC convertidos\07 Pista07.wav
Pre-gap length 0:00:02.00
Peak level 82.1 %
Extraction speed 1.3 X
Track quality 99.8 %
Test CRC 3E5EDBF8
Copy CRC 3E5EDBF8
Copy OK
Track 8
Filename f:\Users\Guillermo\Desktop\EAC convertidos\08 Pista08.wav
Pre-gap length 0:00:02.00
Peak level 87.4 %
Extraction speed 1.7 X
Track quality 100.0 %
Test CRC 8BABFDCB
Copy CRC 8BABFDCB
Copy OK
Track 9
Filename f:\Users\Guillermo\Desktop\EAC convertidos\09 Pista09.wav
Pre-gap length 0:00:02.00
Peak level 96.0 %
Extraction speed 1.7 X
Track quality 100.0 %
Test CRC C3D727D5
Copy CRC C3D727D5
Copy OK
Track 10
Filename f:\Users\Guillermo\Desktop\EAC convertidos\10 Pista10.wav
Pre-gap length 0:00:02.00
Peak level 68.4 %
Extraction speed 1.8 X
Track quality 100.0 %
Test CRC DB4EB511
Copy CRC DB4EB511
Copy OK
Track 11
Filename f:\Users\Guillermo\Desktop\EAC convertidos\11 Pista11.wav
Pre-gap length 0:00:02.00
Peak level 51.3 %
Extraction speed 2.1 X
Track quality 100.0 %
Test CRC 3E277721
Copy CRC 3E277721
Copy OK
Track 12
Filename f:\Users\Guillermo\Desktop\EAC convertidos\12 Pista12.wav
Pre-gap length 0:00:02.00
Peak level 82.4 %
Extraction speed 1.8 X
Track quality 99.8 %
Test CRC 2BFB2AFA
Copy CRC 2BFB2AFA
Copy OK
Track 13
Filename f:\Users\Guillermo\Desktop\EAC convertidos\13 Pista13.wav
Pre-gap length 0:00:02.00
Peak level 74.8 %
Extraction speed 1.8 X
Track quality 100.0 %
Test CRC 172829AF
Copy CRC 172829AF
Copy OK
Track 14
Filename f:\Users\Guillermo\Desktop\EAC convertidos\14 Pista14.wav
Pre-gap length 0:00:02.00
Peak level 56.3 %
Extraction speed 1.4 X
Track quality 99.7 %
Test CRC D4E3CAF6
Copy CRC D4E3CAF6
Copy OK
Track 15
Filename f:\Users\Guillermo\Desktop\EAC convertidos\15 Pista15.wav
Pre-gap length 0:00:02.00
Peak level 63.3 %
Extraction speed 2.4 X
Track quality 100.0 %
Test CRC 668DD281
Copy CRC 668DD281
Copy OK
Track 16
Filename f:\Users\Guillermo\Desktop\EAC convertidos\16 Pista16.wav
Pre-gap length 0:00:02.00
Peak level 89.2 %
Extraction speed 2.5 X
Track quality 100.0 %
Test CRC 5FB7C15A
Copy CRC 5FB7C15A
Copy OK
Track 17
Filename f:\Users\Guillermo\Desktop\EAC convertidos\17 Pista17.wav
Pre-gap length 0:00:02.00
Peak level 45.5 %
Extraction speed 1.4 X
Track quality 99.7 %
Test CRC 52056724
Copy CRC 52056724
Copy OK
Track 18
Filename f:\Users\Guillermo\Desktop\EAC convertidos\18 Pista18.wav
Pre-gap length 0:00:02.00
Peak level 55.9 %
Extraction speed 2.1 X
Track quality 100.0 %
Test CRC B905E3E6
Copy CRC B905E3E6
Copy OK
Track 19
Filename f:\Users\Guillermo\Desktop\EAC convertidos\19 Pista19.wav
Pre-gap length 0:00:02.00
Peak level 71.4 %
Extraction speed 2.6 X
Track quality 100.0 %
Test CRC 24AD2013
Copy CRC 24AD2013
Copy OK
Track 20
Filename f:\Users\Guillermo\Desktop\EAC convertidos\20 Pista20.wav
Pre-gap length 0:00:02.00
Peak level 72.0 %
Extraction speed 2.5 X
Track quality 100.0 %
Test CRC 600FB130
Copy CRC 600FB130
Copy OK
Track 21
Filename f:\Users\Guillermo\Desktop\EAC convertidos\21 Pista21.wav
Pre-gap length 0:00:02.00
Peak level 72.4 %
Extraction speed 2.4 X
Track quality 100.0 %
Test CRC 85943A13
Copy CRC 85943A13
Copy OK
Track 22
Filename f:\Users\Guillermo\Desktop\EAC convertidos\22 Pista22.wav
Pre-gap length 0:00:02.00
Peak level 96.9 %
Extraction speed 2.7 X
Track quality 100.0 %
Test CRC 4DDD4291
Copy CRC 4DDD4291
Copy OK
Track 23
Filename f:\Users\Guillermo\Desktop\EAC convertidos\23 Pista23.wav
Pre-gap length 0:00:02.00
Peak level 71.6 %
Extraction speed 2.6 X
Track quality 100.0 %
Test CRC 62A15785
Copy CRC 62A15785
Copy OK
Track 24
Filename f:\Users\Guillermo\Desktop\EAC convertidos\24 Pista24.wav
Pre-gap length 0:00:02.00
Peak level 43.0 %
Extraction speed 2.7 X
Track quality 100.0 %
Test CRC 40C63849
Copy CRC 40C63849
Copy OK
Track 25
Filename f:\Users\Guillermo\Desktop\EAC convertidos\25 Pista25.wav
Pre-gap length 0:00:02.00
Peak level 70.5 %
Extraction speed 2.4 X
Track quality 100.0 %
Test CRC BB9EA5F1
Copy CRC BB9EA5F1
Copy OK
Track 26
Filename f:\Users\Guillermo\Desktop\EAC convertidos\26 Pista26.wav
Pre-gap length 0:00:02.00
Peak level 35.8 %
Extraction speed 2.5 X
Track quality 100.0 %
Test CRC 0918BBA8
Copy CRC 0918BBA8
Copy OK
Track 27
Filename f:\Users\Guillermo\Desktop\EAC convertidos\27 Pista27.wav
Pre-gap length 0:00:02.00
Peak level 60.6 %
Extraction speed 2.5 X
Track quality 100.0 %
Test CRC C5735B82
Copy CRC C5735B82
Copy OK
Track 28
Filename f:\Users\Guillermo\Desktop\EAC convertidos\28 Pista28.wav
Pre-gap length 0:00:02.00
Peak level 79.6 %
Extraction speed 2.5 X
Track quality 99.8 %
Test CRC F8E5D6DB
Copy CRC F8E5D6DB
Copy OK
Track 29
Filename f:\Users\Guillermo\Desktop\EAC convertidos\29 Pista29.wav
Pre-gap length 0:00:02.00
Peak level 79.2 %
Extraction speed 2.9 X
Track quality 100.0 %
Test CRC 1CF713D3
Copy CRC 1CF713D3
Copy OK
Track 30
Filename f:\Users\Guillermo\Desktop\EAC convertidos\30 Pista30.wav
Pre-gap length 0:00:02.00
Peak level 73.3 %
Extraction speed 2.7 X
Track quality 100.0 %
Test CRC 28366074
Copy CRC 28366074
Copy OK
Track 31
Filename f:\Users\Guillermo\Desktop\EAC convertidos\31 Pista31.wav
Pre-gap length 0:00:02.00
Peak level 77.3 %
Extraction speed 2.9 X
Track quality 100.0 %
Test CRC 910DFF2F
Copy CRC 910DFF2F
Copy OK
Track 32
Filename f:\Users\Guillermo\Desktop\EAC convertidos\32 Pista32.wav
Pre-gap length 0:00:02.00
Peak level 67.4 %
Extraction speed 2.2 X
Track quality 99.8 %
Test CRC DB16645A
Copy CRC DB16645A
Copy OK
Track 33
Filename f:\Users\Guillermo\Desktop\EAC convertidos\33 Pista33.wav
Pre-gap length 0:00:02.00
Peak level 87.5 %
Extraction speed 2.8 X
Track quality 100.0 %
Test CRC 8DB34F70
Copy CRC 8DB34F70
Copy OK
Track 34
Filename f:\Users\Guillermo\Desktop\EAC convertidos\34 Pista34.wav
Pre-gap length 0:00:02.00
Peak level 52.9 %
Extraction speed 3.0 X
Track quality 100.0 %
Test CRC CD86CFDD
Copy CRC CD86CFDD
Copy OK
No errors occurred
End of status report
==== Log checksum 22CEEF56EA1703157DB18A9664E335502E708F4911400CD7194638205A5E96AA ====

Содержание индексной карты (.CUE)

REM DISCID 07111A22
REM COMMENT "ExactAudioCopy v1.0b3"
FILE "01 Pista01.wav" WAVE
TRACK 01 AUDIO
FLAGS DCP
INDEX 01 00:00:00
TRACK 02 AUDIO
FLAGS DCP
INDEX 00 01:33:49
FILE "02 Pista02.wav" WAVE
INDEX 01 00:00:00
TRACK 03 AUDIO
FLAGS DCP
INDEX 00 01:40:53
FILE "03 Pista03.wav" WAVE
INDEX 01 00:00:00
TRACK 04 AUDIO
FLAGS DCP
INDEX 00 01:57:71
FILE "04 Pista04.wav" WAVE
INDEX 01 00:00:00
TRACK 05 AUDIO
FLAGS DCP
INDEX 00 02:48:37
FILE "05 Pista05.wav" WAVE
INDEX 01 00:00:00
TRACK 06 AUDIO
FLAGS DCP
INDEX 00 01:43:34
FILE "06 Pista06.wav" WAVE
INDEX 01 00:00:00
TRACK 07 AUDIO
FLAGS DCP
INDEX 00 02:53:74
FILE "07 Pista07.wav" WAVE
INDEX 01 00:00:00
TRACK 08 AUDIO
FLAGS DCP
INDEX 00 01:53:48
FILE "08 Pista08.wav" WAVE
INDEX 01 00:00:00
TRACK 09 AUDIO
FLAGS DCP
INDEX 00 01:35:46
FILE "09 Pista09.wav" WAVE
INDEX 01 00:00:00
TRACK 10 AUDIO
FLAGS DCP
INDEX 00 01:37:43
FILE "10 Pista10.wav" WAVE
INDEX 01 00:00:00
TRACK 11 AUDIO
FLAGS DCP
INDEX 00 01:45:02
FILE "11 Pista11.wav" WAVE
INDEX 01 00:00:00
TRACK 12 AUDIO
FLAGS DCP
INDEX 00 02:41:63
FILE "12 Pista12.wav" WAVE
INDEX 01 00:00:00
TRACK 13 AUDIO
FLAGS DCP
INDEX 00 02:58:51
FILE "13 Pista13.wav" WAVE
INDEX 01 00:00:00
TRACK 14 AUDIO
FLAGS DCP
INDEX 00 01:30:10
FILE "14 Pista14.wav" WAVE
INDEX 01 00:00:00
TRACK 15 AUDIO
FLAGS DCP
INDEX 00 01:33:20
FILE "15 Pista15.wav" WAVE
INDEX 01 00:00:00
TRACK 16 AUDIO
FLAGS DCP
INDEX 00 03:04:13
FILE "16 Pista16.wav" WAVE
INDEX 01 00:00:00
TRACK 17 AUDIO
FLAGS DCP
INDEX 00 02:58:22
FILE "17 Pista17.wav" WAVE
INDEX 01 00:00:00
TRACK 18 AUDIO
FLAGS DCP
INDEX 00 01:28:13
FILE "18 Pista18.wav" WAVE
INDEX 01 00:00:00
TRACK 19 AUDIO
FLAGS DCP
INDEX 00 01:29:55
FILE "19 Pista19.wav" WAVE
INDEX 01 00:00:00
TRACK 20 AUDIO
FLAGS DCP
INDEX 00 03:01:32
FILE "20 Pista20.wav" WAVE
INDEX 01 00:00:00
TRACK 21 AUDIO
FLAGS DCP
INDEX 00 02:17:41
FILE "21 Pista21.wav" WAVE
INDEX 01 00:00:00
TRACK 22 AUDIO
FLAGS DCP
INDEX 00 01:55:16
FILE "22 Pista22.wav" WAVE
INDEX 01 00:00:00
TRACK 23 AUDIO
FLAGS DCP
INDEX 00 02:54:58
FILE "23 Pista23.wav" WAVE
INDEX 01 00:00:00
TRACK 24 AUDIO
FLAGS DCP
INDEX 00 02:06:72
FILE "24 Pista24.wav" WAVE
INDEX 01 00:00:00
TRACK 25 AUDIO
FLAGS DCP
INDEX 00 02:05:30
FILE "25 Pista25.wav" WAVE
INDEX 01 00:00:00
TRACK 26 AUDIO
FLAGS DCP
INDEX 00 01:41:08
FILE "26 Pista26.wav" WAVE
INDEX 01 00:00:00
TRACK 27 AUDIO
FLAGS DCP
INDEX 00 01:48:12
FILE "27 Pista27.wav" WAVE
INDEX 01 00:00:00
TRACK 28 AUDIO
FLAGS DCP
INDEX 00 01:37:43
FILE "28 Pista28.wav" WAVE
INDEX 01 00:00:00
TRACK 29 AUDIO
FLAGS DCP
INDEX 00 02:55:12
FILE "29 Pista29.wav" WAVE
INDEX 01 00:00:00
TRACK 30 AUDIO
FLAGS DCP
INDEX 00 02:21:35
FILE "30 Pista30.wav" WAVE
INDEX 01 00:00:00
TRACK 31 AUDIO
FLAGS DCP
INDEX 00 01:43:05
FILE "31 Pista31.wav" WAVE
INDEX 01 00:00:00
TRACK 32 AUDIO
FLAGS DCP
INDEX 00 02:08:69
FILE "32 Pista32.wav" WAVE
INDEX 01 00:00:00
TRACK 33 AUDIO
FLAGS DCP
INDEX 00 02:02:20
FILE "33 Pista33.wav" WAVE
INDEX 01 00:00:00
TRACK 34 AUDIO
FLAGS DCP
INDEX 00 01:52:64
FILE "34 Pista34.wav" WAVE
INDEX 01 00:00:00

ПЕРЕЧЕНЬ ИСПОЛНИТЕЛЕЙ C УКАЗАНИЕМ ДАТЫ ЗАПИСИ

Stretta "Di quella pira l'orrendo foco" (Giuseppe Verdi - Il Trovatore: Act III, Scene 2, No 11)
1. Julian Biel (1903);
2. Francesco Tamagno (1903);
3. Leone-Antoine Escalais (1906);
4. Mario Gilion (1906);
5. Enrico Caruso (1906);
6. Antonio Paoli (1907);
7. Giovanni Zenatello (1909);
8. Johannes Sembach (1909);
9. Leo Slezak (1909);
10. Florencio Constantino (1909);
11. Giovanni Martinelli (1915);
12. Bernardo De Muro (1917);
13. Nicola Fusati (1920);
14. Nino Piccaluga (1922);
15. Giacomo Lauri-Volpi (1923);
16. Aureliano Pertile (1924);
17. Ettore Bergamaschi (1925);
18. Richard Tauber (1926);
19. John O' Sullivan (1926);
20. Helge Rosvaenge (1928);
21. Giuseppe Taccani (1928);
22. Vittorio Lois (1928);
23. Hipolito Lazaro (1929);
24. Antonio Cortis (1930);
25. Aroldo Lindi (1930);
26. Francesco Merli (1930);
27. Franz Volker (1931);
28. Jean Kiepura (1933);
29. Joseph Schmidt (1934);
30. Jussi Bjoerling (1939);
31. Beniamino Gigli (1940);
32. Antonio Salvarezza (1948);
33. Jose Soler (1953);
34. Mario Filippeschi (1956).



Показать сообщения:    

Текущее время: 09-Дек 06:58

Часовой пояс: UTC + 3


Вы не можете начинать темы
Вы не можете отвечать на сообщения
Вы не можете редактировать свои сообщения
Вы не можете удалять свои сообщения
Вы не можете голосовать в опросах
Вы не можете прикреплять файлы к сообщениям
Вы не можете скачивать файлы