Шанс / Chance (Эмбер Бенсон / Amber Benson) [2002, США, комедия, драма, DVDRip] VO (Кошкин)


Статистика раздачи [Обновить пиров]
Размер:  736 MB   |    Зарегистрирован:  8 месяцев 17 дней   |    Скачан:  0 раз

Полного источника не было: Никогда

 
   
 
 
 

[Цитировать]

Шанс / Chance- Страна: США
Жанр: комедия, драма
Год выпуска: 2002
Продолжительность: 01:14:52-Перевод: Одноголосый закадровый Василий Кошкин
Cубтитры: нет-Режиссер: Эмбер Бенсон / Amber Benson
В ролях: Эмбер Бенсон, Джеймс Марстерс, Энди Халлетт, Тресса ДиФиглия, Рэйдер Вудс, Джефф Рикеттс, Эмма Колфилд-Описание: Это история о девушке 20-ти лет, которая ищет любовь и которой приходится иметь дело с одержимым навязчивым соседом, новомодной мамой-хиппи и мертвой девушкой, лежащей в ее кровати.-Сэмпл-Качество видео: DVDRip
Формат видео: AVI
Видео: 576x432 (1.33:1), 29.970 fps, XviD build 47 ~1171 kbps avg, 0.16 bit/pixel
Аудио: 48 kHz, AC3 Dolby Digital, 2/0 (L,R) ch, ~192 kbps

MediaInfo

General
Complete name : E:\Downloads\Chance.2002.VO.avi
Format : AVI
Format/Info : Audio Video Interleave
File size : 736 MiB
Duration : 1h 14mn
Overall bit rate : 1 375 Kbps
Writing application : VirtualDubMod 1.5.10.2 (build 2540/release)
Writing library : VirtualDubMod build 2540/release
Video
ID : 0
Format : MPEG-4 Visual
Format profile : Advanced Simple@L5
Format settings, BVOP : 1
Format settings, QPel : No
Format settings, GMC : No warppoints
Format settings, Matrix : Custom
Codec ID : XVID
Codec ID/Hint : XviD
Duration : 1h 14mn
Bit rate : 1 171 Kbps
Width : 576 pixels
Height : 432 pixels
Display aspect ratio : 4:3
Frame rate : 29.970 fps
Color space : YUV
Chroma subsampling : 4:2:0
Bit depth : 8 bits
Scan type : Progressive
Compression mode : Lossy
Bits/(Pixel*Frame) : 0.157
Stream size : 627 MiB (85%)
Writing library : XviD 1.2.0.dev47 (UTC 2006-11-01)
Audio
ID : 1
Format : AC-3
Format/Info : Audio Coding 3
Mode extension : CM (complete main)
Format settings, Endianness : Big
Codec ID : 2000
Duration : 1h 14mn
Bit rate mode : Constant
Bit rate : 192 Kbps
Channel(s) : 2 channels
Channel positions : Front: L R
Sampling rate : 48.0 KHz
Bit depth : 16 bits
Compression mode : Lossy
Stream size : 103 MiB (14%)
Alignment : Split accross interleaves
Interleave, duration : 33 ms (1.00 video frame)
Interleave, preload duration : 500 ms

Скриншот c названием фильма

Скриншоты

[teatrix.ru].t21977.torrent 
Торрент: Зарегистрирован [ 2016-03-20 12:48 ] · F7221251B06EEF5F61E9ECD76988ADE44B2A6CFD

Скачать .torrent

Скачать

15 KB

Статус: проверено
Скачан: 0 раз
Размер: 736 MB
terms.php



Быстрый ответ

Имя:

      
Для отправки сообщений необходимо включить JavaScript
Показать сообщения:    

Текущее время: 06-Дек 15:14

Часовой пояс: UTC + 3


Вы можете начинать темы
Вы можете отвечать на сообщения
Вы не можете редактировать свои сообщения
Вы не можете удалять свои сообщения
Вы не можете голосовать в опросах
Вы не можете прикреплять файлы к сообщениям
Вы можете скачивать файлы