[TR24][OF] Felix Mendelssohn Bartholdy: The Complete Solo Piano Music, Vol. 1 - Howard Shelley - 2013 (Classical)


Статистика раздачи [Обновить пиров]
Размер:  1.14 GB   |    Зарегистрирован:  8 месяцев 19 дней   |    Скачан:  0 раз

Полного источника не было: 1 месяц 8 дней

 
   
 
 
 

[Цитировать]

Felix Mendelssohn Bartholdy
The Complete Solo Piano Music, Vol. 1
Howard Shelley
-Год издания: 2013 | Жанр: Classical
Издатель: Hyperion Records | Продолжительность: 01:14:05
Наличие сканов: Sleeve, Digital Booklet- -Howard Shelley (piano)-Контейнер: FLAC (*.flac) | Тип рипа: tracks
Разрядность: 24bit / 96kHz | Количество каналов: 2.0
-Треклист
Felix Mendelssohn (1809 - 1847)
Capriccio in F sharp minor, Op 5
01.Capriccio in F sharp minor (6:04)
Piano Sonata in E major, Op 6
02. Movement 1: Allegretto con espressione (5:42)
03. Movement 2: Tempo di menuetto (4:39)
04. Movement 3: Adagio e senza tempo (6:39)
05. Movement 4: Molto allegro e vivace (6:36)
Sieben Charakterstucke, Op 7
06. No 1 in E minor: Sanft und mit Empfindung (3:50)
07. No 2 in B minor: Mit heftiger Bewegung (2:09)
08. No 3 in D major: Kraftig und feurig (3:41)
09. No 4 in A major: Schnell und beweglich (3:45)
10. No 5 in A major: Fuga, Ernst und mit steigender Lebhaftigkeit (7:08)
11. No 6 in E minor: Sehnsuchtig (3:26)
12. No 7 in E major: Leicht und luftig (3:23)
Lieder ohne Worte I, Op 19b
13. No 1 in E major: Andante con moto (3:27)
14. No 2 in A minor: Andante espressivo (2:32)
15. No 3 in A major: Molto allegro e vivace (2:29)
16. No 4 in A major: Moderato (2:03)
17. No 5 in F sharp minor: Poco agitato (3:37)
18. No 6 in G minor 'Venetianisches Gondellied': Andante sostenuto (2:56)

О релизе


Howard Shelley is acclaimed as the living master of early Romantic piano music. So much of this music was ignored throughout the twentieth century that there is still a sense of discovery at each new recording. Shelley here presents the first instalment of a six-volume set of Mendelssohn’s complete solo piano music—perhaps the least well-known part of the composer’s repertoire.
Mendelssohn composed or began nearly two hundred works for piano. Nevertheless, he saw only about seventy through the press, released in seventeen opera from the Capriccio Op 5 (1825) to the sixth volume of the Lieder ohne Worte Op 67 (1845). Some twenty-five additional pieces appeared posthumously in eleven additional opera. The remainder, whether fully drafted or fragmentary, were left to his musical estate or have disappeared.
Volume 1 includes Opp 5, 6, and 7, the first three piano compositions Mendelssohn published between 1825 and 1827, as well as Op 19b, the first volume of his Lieder ohne Worte, released in 1832.
'Immaculate, lightly-pedalled brilliance, unfaltering stylistic assurance, warmth and flexibility … Hyperion's sound and presentation complement Shelley's admirable performances' --Gramophone
'When Mendelssohn asks for Presto, Shelley takes him at his word, with a fleetness and control that command admiration, not to mention envy. He also brings a wide variety of dynamics and tone, well captured by the recording. I particularly liked the sparsity of his pedalling, leaving the composer's lines to do their work' --BBC Music Magazine
'Fans of fireworks won't be disappointed, in either the opening Capriccio in F sharp minor or the astonishing bravura finale of the Sonata in E major, both the work of the teenage Mendelssohn. Shelley gives us a further glimpse of the restlessly romantic mind of this wunderkind in the cycle of seven Characterstücke before wrapping us in the warm, gemütlich embrace of Book 1 of the Songs without Words. With playing of this quality this is going to be a series to treasure' --The Observer
'The Seven Character Pieces, Op 7 … truly reveal the vast range of Mendelssohn's pianistic and compositional language … the programme notes are formidable and provide a veritable fund of information. Hyperion's sound quality is first-rate, as ever … Shelley's playing is faultless, and the clarity he brings to the voice-leading and the vast textures of the 'Fugue' has me listening repeatedly to this track' --International Record Review
Recorded: March 2012at St Michael's Church, Highgate, London, United Kingdom

ОтчётыДинамический диапазон

foobar2000 1.3.8 / Dynamic Range Meter 1.1.1
log date: 2015-08-12 09:37:47
--------------------------------------------------------------------------------
Analyzed: Howard Shelley / Mendelssohn: The Complete Solo Piano Music, Vol. 1
--------------------------------------------------------------------------------
DR Peak RMS Duration Track
--------------------------------------------------------------------------------
DR14 -0.60 dB -19.28 dB 6:04 01-Capriccio in F sharp minor, Op 5
DR14 -2.36 dB -23.34 dB 5:42 02-Piano Sonata in E major, Op 6 - Movement 1: Allegretto con espressione
DR14 -2.41 dB -23.87 dB 4:39 03-Piano Sonata in E major, Op 6 - Movement 2: Tempo di menuetto
DR14 -2.15 dB -23.91 dB 6:39 04-Piano Sonata in E major, Op 6 - Movement 3: Adagio e senza tempo
DR13 -1.39 dB -19.13 dB 6:36 05-Piano Sonata in E major, Op 6 - Movement 4: Molto allegro e vivace
DR13 -9.96 dB -29.27 dB 3:50 06-Sieben Charakterstücke, Op 7 - No 1 in E minor: Sanft und mit Empfindung
DR13 -2.89 dB -19.95 dB 2:09 07-Sieben Charakterstücke, Op 7 - No 2 in B minor: Mit heftiger Bewegung
DR13 -1.77 dB -19.85 dB 3:41 08-Sieben Charakterstücke, Op 7 - No 3 in D major: Kräftig und feurig
DR12 -3.99 dB -21.47 dB 3:45 09-Sieben Charakterstücke, Op 7 - No 4 in A major: Schnell und beweglich
DR14 -0.95 dB -19.86 dB 7:08 10-Sieben Charakterstücke, Op 7 - No 5 in A major: Fuga, Ernst und mit steigender Lebhaftigkeit
DR15 -6.69 dB -29.45 dB 3:26 11-Sieben Charakterstücke, Op 7 - No 6 in E minor: Sehnsüchtig
DR14 -8.64 dB -25.56 dB 3:23 12-Sieben Charakterstücke, Op 7 - No 7 in E major: Leicht und luftig
DR14 -5.86 dB -25.93 dB 3:27 13-Lieder ohne Worte I, Op 19b - No 1 in E major: Andante con moto
DR12 -10.16 dB -28.07 dB 2:32 14-Lieder ohne Worte I, Op 19b - No 2 in A minor: Andante espressivo
DR13 -0.32 dB -18.30 dB 2:29 15-Lieder ohne Worte I, Op 19b - No 3 in A major: Molto allegro e vivace
DR12 -5.32 dB -25.24 dB 2:03 16-Lieder ohne Worte I, Op 19b - No 4 in A major: Moderato
DR15 -0.10 dB -22.08 dB 3:37 17-Lieder ohne Worte I, Op 19b - No 5 in F sharp minor: Poco agitato
DR13 -9.47 dB -32.17 dB 2:56 18-Lieder ohne Worte I, Op 19b - No 6 in G minor 'Venetianisches Gondellied': Andante sostenuto
--------------------------------------------------------------------------------
Number of tracks: 18
Official DR value: DR13
Samplerate: 96000 Hz
Channels: 2
Bits per sample: 24
Bitrate: 2035 kbps
Codec: FLAC
================================================================================

Скриншот спектра частот

Доп. информация

При скачивании, если необходимо, переименуйте папку, в которой будет находиться альбомБольшая просьба к скачавшим поддерживать раздачу! Помогайте другим, ведь вам тоже может понадобиться помощь!Не забываем говорить "Спасибо"!Комментарии приветствуются!
Felix Mendelssohn Hi-Res
[teatrix.ru].t21978.torrent 
Торрент: Зарегистрирован [ 2016-03-20 12:48 ] · 614CE822904CCEEB299B60E4B9FBF9A17F607DA8

Скачать .torrent

Скачать

14 KB

Статус: проверено
Скачан: 0 раз
Размер: 1.14 GB
terms.php



Быстрый ответ

Имя:

      
Для отправки сообщений необходимо включить JavaScript
Показать сообщения:    

Текущее время: 08-Дек 23:12

Часовой пояс: UTC + 3


Вы можете начинать темы
Вы можете отвечать на сообщения
Вы не можете редактировать свои сообщения
Вы не можете удалять свои сообщения
Вы не можете голосовать в опросах
Вы не можете прикреплять файлы к сообщениям
Вы можете скачивать файлы