(Medieval, Sefardi, Andalusi) Ay! Amor... - Ensemble Constantinople & Francoise Atlan - 2008, WavPack (image+.cue) lossless


 

[Цитировать]

Ay! Amor...Constantinople
Françoise Atlan
Жанр: Medieval, Sefardí, Andalusí
Страна-производитель диска: Canada
Год издания диска: 2008
Издатель (лейбл): Atma classique
Номер по каталогу: ACD 2 2594
Дата записи: February 12-14, 2008
Аудиокодек: WavPack
Тип рипа: image+.cue
Битрейт аудио: lossless
Продолжительность: 76:58
Источник: собственный рип
Наличие сканов в содержимом раздачи: да

Треклист

01. Amor de Ti [8:29]
Texte et musique Françoise Atlan
02. Cantiga de Amor [8:54]
Cantigas de Amigo, Martim Codax
03. Hublot bleu [5:24]
Adaptation de la romance séfarade Noches, Noches
04. Hawa [4:09]
Sikilos, fragment musical grec du II siècle
05. Suite «Où est la demeure de l'Ami?» [8:39]
Chant arabo-andalou Ritt Ryad, Oy, qué casas tan hermosas[cantiga de boda]
06. De moi doloreus vos chants [6:10]
Gilbert de Berneville [Trouvère- XIII siècle], Adaptation de Nana, Frederic Garcia Lorca
07. Masti [6:21]
Mode dashti
08. Tierras ajenas [6:58]
Cantigas de Santa Maria #52 et une adaptation du chant séfarade Arvoles
09. Shamaim [6:22]
Adaptation de Yo Hanino - Shimesh [chant judéo-yéménite]
10. Ey Eshqhe [15:32]
Adaptation de la romance judéo-espagnole Nanni et un chant gharnati

Исполнители

Françoise Atlan: voix | vocal
Constantinople:
Kiya Tabassian: sétar | setar
Ziya Tabassian: tombak, def, dayereh, percussion
Saeed Kamjoo: vièle kamanchen, soroud | kamanchen vielle, soroud

log EAC

Exact Audio Copy V0.99 prebeta 5 from 4. May 2009
Отчёт EAC об извлечении, выполненном 29. июля 2015, 3:18
Constantinople & Francoise Atlan / Ay! Amor...
Дисковод: PIONEER DVD-RW DVR-219L Adapter: 1 ID: 1
Режим чтения : Достоверность
Использование точного потока : Да
Отключение кэша аудио : Да
Использование указателей C2 : Нет
Коррекция смещения при чтении : 6
Способность читать области Lead-in и Lead-out : Нет
Заполнение пропущенных сэмплов тишиной : Да
Удаление блоков с тишиной в начале и конце : Нет
При вычислениях CRC использовались нулевые сэмплы : Да
Интерфейс : Встроенный Win32-интерфейс для Win NT/2000
Выходной формат : Внутренние WAV-операции
Формат сэмплов : 44.100 Гц; 16 бит; стерео
TOC извлечённого CD
Трек | Старт | Длительность | Начальный сектор | Конечный сектор
---------------------------------------------------------------------
1 | 0:00.00 | 8:29.15 | 0 | 38189
2 | 8:29.15 | 8:54.16 | 38190 | 78255
3 | 17:23.31 | 5:23.56 | 78256 | 102536
4 | 22:47.12 | 4:08.62 | 102537 | 121198
5 | 26:55.74 | 8:38.44 | 121199 | 160092
6 | 35:34.43 | 6:09.60 | 160093 | 187827
7 | 41:44.28 | 6:21.26 | 187828 | 216428
8 | 48:05.54 | 6:58.08 | 216429 | 247786
9 | 55:03.62 | 6:22.04 | 247787 | 276440
10 | 61:25.66 | 15:31.71 | 276441 | 346336
Характеристики диапазона извлечения и сообщения об ошибках
Выбранный диапазон
Имя файла C:\Documents and Settings\Agni\Мои документы\EAC\Constantinople & Francoise Atlan - Ay! Amor....wav
Пиковый уровень 100.0 %
Качество диапазона 100.0 %
CRC теста D3E72492
CRC копии D3E72492
Копирование... OK
Ошибок не произошло
AccurateRip: сводка
Трек 1 нет в базе данных
Трек 2 нет в базе данных
Трек 3 нет в базе данных
Трек 4 нет в базе данных
Трек 5 нет в базе данных
Трек 6 нет в базе данных
Трек 7 нет в базе данных
Трек 8 нет в базе данных
Трек 9 нет в базе данных
Трек 10 нет в базе данных
Ни одного трека нет в базе AccurateRip
Конец отчёта



Показать сообщения:    

Текущее время: 03-Дек 18:37

Часовой пояс: UTC + 3


Вы не можете начинать темы
Вы не можете отвечать на сообщения
Вы не можете редактировать свои сообщения
Вы не можете удалять свои сообщения
Вы не можете голосовать в опросах
Вы не можете прикреплять файлы к сообщениям
Вы не можете скачивать файлы