(Clasicos espanoles) Lucas Ruiz de Ribayaz, Gaspar Sanz, Jose Angel Gutierrez, Teresita Jesus Islas - Terra nostra (Ensemble Constantinople, dir. Kiya Tabassian) - 2007, WavPack (image+.cue) lossless


 

[Цитировать]

ConstantinopleJosé Angel Gutierrez
Teresita de Jesús Islas
Terra nostra
Жанр: Clásicos españoles
Страна-производитель диска: Canada
Год издания диска: 2007
Издатель (лейбл): Atma classique
Номер по каталогу: ACD 2 2567
Дата записи: November 21-23, 2006
Аудиокодек: WavPack
Тип рипа: image+.cue
Битрейт аудио: lossless
Продолжительность: 57:45
Источник: собственный рип
Наличие сканов в содержимом раздачи: да

Треклист

1. Zarambesques [Lucas Ruiz de Ribayaz, fl. 1677] [4:00]
2. Xaracas [Lucas Ruiz de Ribayaz] :: El Cascabel [son jarocho] [9:04]
3. La Petenera [son jarocho] [7:28]
4. Españoletas [Lucas Ruiz de Ribayaz] [5:08]
5. El fandanguito [son jarocho] [6:39]
6. Folia [Gaspar Sanz, 1674] :: Folia [Lucas Ruiz de Ribayaz] [2:48]
7. Improvisation | Retorno [José Angel Gutierrez et Teresita Jesús Islas] [9:27]
8. Paysonos [Santiago de Murcia] :: Lloroncita [José Angel Gutierrez et Teresita Jesús Islas] [6:17]
9. Jota [anonyme, 1705] :: El pájaro cú [son jarocho] [6:56]

Исполнители

José Angel Gutierrez: requinto, voix | requinto, vocals
Teresita de Jesús Islas: jarana, voix, danse | jarana, vocals, dance
Constantinople:
Kiya Tabassian: sétar, directeur artistique | setar, artistic direction
Ziya Tabassian: tombak, def, dayereh, percussion
Betsy McMillan: viole de gambe | viola da gamba
Saeed Kamjoo: vièle kamanchen | kamanchen vielle
Matthew Wadsworth: guitare baroque | baroque guitar

log EAC

Exact Audio Copy V0.99 prebeta 5 from 4. May 2009
Отчёт EAC об извлечении, выполненном 29. июля 2015, 0:08
Constantinople / Terra nostra
Дисковод: PIONEER DVD-RW DVR-219L Adapter: 1 ID: 1
Режим чтения : Достоверность
Использование точного потока : Да
Отключение кэша аудио : Да
Использование указателей C2 : Нет
Коррекция смещения при чтении : 6
Способность читать области Lead-in и Lead-out : Нет
Заполнение пропущенных сэмплов тишиной : Да
Удаление блоков с тишиной в начале и конце : Нет
При вычислениях CRC использовались нулевые сэмплы : Да
Интерфейс : Встроенный Win32-интерфейс для Win NT/2000
Выходной формат : Внутренние WAV-операции
Формат сэмплов : 44.100 Гц; 16 бит; стерео
TOC извлечённого CD
Трек | Старт | Длительность | Начальный сектор | Конечный сектор
---------------------------------------------------------------------
1 | 0:00.00 | 3:59.45 | 0 | 17969
2 | 3:59.45 | 9:03.42 | 17970 | 58736
3 | 13:03.12 | 7:27.44 | 58737 | 92305
4 | 20:30.56 | 5:07.68 | 92306 | 115398
5 | 25:38.49 | 6:38.47 | 115399 | 145295
6 | 32:17.21 | 2:47.71 | 145296 | 157891
7 | 35:05.17 | 9:27.15 | 157892 | 200431
8 | 44:32.32 | 6:17.08 | 200432 | 228714
9 | 50:49.40 | 6:55.62 | 228715 | 259901
Характеристики диапазона извлечения и сообщения об ошибках
Выбранный диапазон
Имя файла C:\Documents and Settings\Agni\Мои документы\EAC\Constantinople - Terra nostra.wav
Пиковый уровень 93.7 %
Качество диапазона 100.0 %
CRC теста 9FA8A96A
CRC копии 9FA8A96A
Копирование... OK
Ошибок не произошло
AccurateRip: сводка
Трек 1 точность не определена (достоверность 1) [151883D1], AccurateRip вернул [440153B4]
Трек 2 точность не определена (достоверность 1) [16AB0D20], AccurateRip вернул [DDCF7302]
Трек 3 точность не определена (достоверность 1) [0B01801E], AccurateRip вернул [D9257D78]
Трек 4 точность не определена (достоверность 1) [7A131ECC], AccurateRip вернул [8913B0B5]
Трек 5 точность не определена (достоверность 1) [EB5E27E2], AccurateRip вернул [93061BC0]
Трек 6 точность не определена (достоверность 1) [CD6CA521], AccurateRip вернул [585F6557]
Трек 7 точность не определена (достоверность 1) [1BDB79E3], AccurateRip вернул [A855EFC2]
Трек 8 точность не определена (достоверность 1) [39CE35FB], AccurateRip вернул [C8639D73]
Трек 9 точность не определена (достоверность 1) [DDA879C0], AccurateRip вернул [64935DD1]
Ни один трек не прошёл проверки на точность
В вашей базе может быть иной вариант штамповки диска
Конец отчёта



Показать сообщения:    

Текущее время: 08-Дек 01:17

Часовой пояс: UTC + 3


Вы не можете начинать темы
Вы не можете отвечать на сообщения
Вы не можете редактировать свои сообщения
Вы не можете удалять свои сообщения
Вы не можете голосовать в опросах
Вы не можете прикреплять файлы к сообщениям
Вы не можете скачивать файлы