(Classical) Wolfgang Amadeus Mozart - Die Entfuhrung aus dem Serail (Yannick Nezet-Seguin; Diana Damrau, Anna Prohaska, Rolando Villazon, Paul Schweinester) - 2015, FLAC (image+.cue) lossless


 

[Цитировать]

Wolfgang Amadeus Mozart - Die Entfuhrung aus dem Serail (Yannick Nezet-Seguin; Diana Damrau, Anna Prohaska, Rolando Villazon, Paul Schweinester)
Жанр: Classical
Год издания диска: 2015
Издатель (лейбл): Deutsche Grammophon
Номер по каталогу: 479 4064
Год записи: 2014
Аудиокодек: FLAC
Тип рипа: image+.cue
Битрейт аудио: lossless
Продолжительность: CD1'01:14:26; CD2'01:04:14
Источник: скачано из сети
Наличие сканов в содержимом раздачи: да
Исполнители:
Selim - Thomas Quasthoff
Belmonte - Rolando Villazón
Konstanze - Diana Damrau
Blonde - Anna Prohaska
Pedrillo - Paul Schweinester
Osmin - Franz-Josef Selig
Vocalensemble Rastatt
Chamber Orchestra of Europe
Conductor - Yannick Nézet-Séguin

Треклист:

CD1
01. Ouverture (04:06)
02. Erster Aufzug. Arie: Hier soll ich dich denn sehen (02:42)
03. Lied und Duett: Wer ein Liebchen hat gefunden (06:33)
04. Nun, wie steht's, Osmin? (00:29)
05. Arie: Solche hergelaufne Laffen (05:08)
06. Geh nur, verwunschter Aufpasser! (02:24)
07. Rezitativ und Arie: Konstanze, dich wiederzusehen (05:18)
08. Geschwind, geschwind auf die Seite! ... Marsch (01:15)
09. Chor der Janitscharen: Singt dem grossen Bassa Lieder (01:35)
10. Immer noch traurig, geliebte Konstanze (00:56)
11. Arie: Ach ich liebte, war so glucklich (05:20)
12. Halt ein, nicht ein Wort! ... Herr! Verzeih, dass ich es wage (03:18)
13. Terzett: Marsch, marsch, marsch! Trollt euch fort! (02:04)
14. Zweiter Aufzug. O des Zankens, Befehlens und Murrens (00:25)
15. Arie: Durch Zartlichkeit und Schmeicheln (04:37)
16. Zartlichkeit? Schmeicheln? (02:10)
17. Duett: Ich gehe, doch rate ich dir (03:44)
18. Wie traurig das gute Madchen daherkommt! (00:27)
19. Rezitativ und Arie: Welcher Wechsel herrscht in meiner Seele (02:10)
20. Traurigkeit ward mir zum Lose (07:24)
21. Mein bestes Fraulein, noch immer so traurig? (02:08)
22. Arie: Martern aller Arten (10:13)
CD2
01. Ist das ein Traum? (00:44)
02. Pst, pst, Blondchen! (01:00)
03. Arie: Welche Wonne, welche Lust (03:01)
04. Dass es schon vorbei ware ... Arie: Frisch zum Kampfe! (03:37)
05. Ha! Geht's hier so lustig zu? (01:17)
06. Duett: Vivat Bacchus! Bacchus lebe! (02:09)
07. Wahrhaftig, das muss ich gestehen, es geht doch nichts uber den Wein! (01:55)
08. Arie: Wenn der Freude Tranen fliessen (06:02)
09. Quartett: Ach, Belmonte! Ach, mein Leben! (10:30)
10. Dritter Aufzug. O Konstanze, je naher der Augenblick kommt (00:18)
11. Arie: Ich baue ganz auf deine Starke (06:17)
12. Alles liegt auf dem Ohr ... Romanze: In Mohrenland gefangen war (02:48)
13. Wie angstlich schlagt mein Herz (01:14)
14. Arie: Ho, wie will ich triumphieren (03:27)
15. Was gibt's, Osmin? (02:55)
16. Rezitativ und Duett: Welch ein Geschick! (02:20)
17. Meinetwegen sollst du sterben! (06:56)
18. Nun, zitterst du? Erwartest du dein Urteil? (02:29)
19. Vaudeville: Nie werd' ich deine Huld verkennen (03:55)
20. Chor der Janitscharen: Bassa Selim lebe lange (01:20)

Log EAC:LOG CD01:

Exact Audio Copy V1.0 beta 3 from 29. August 2011
EAC extraction logfile from 8. August 2015, 14:58
Yannick Nézet-Séguin / Mozart - Die Entfuhrung aus dem Serail CD1
Used drive : PIONEER BD-RW BDR-207M Adapter: 0 ID: 0
Read mode : Secure
Utilize accurate stream : Yes
Defeat audio cache : Yes
Make use of C2 pointers : No
Read offset correction : 667
Overread into Lead-In and Lead-Out : No
Fill up missing offset samples with silence : Yes
Delete leading and trailing silent blocks : No
Null samples used in CRC calculations : Yes
Used interface : Native Win32 interface for Win NT & 2000
Used output format : User Defined Encoder
Selected bitrate : 128 kBit/s
Quality : High
Add ID3 tag : No
Command line compressor : C:\Program Files\Exact Audio Copy\Flac\flac.exe
Additional command line options : -V -8 -T "Date=%year%" -T "Genre=%genre%" %source%
TOC of the extracted CD
Track | Start | Length | Start sector | End sector
---------------------------------------------------------
1 | 0:00.00 | 4:06.12 | 0 | 18461
2 | 4:06.12 | 2:42.35 | 18462 | 30646
3 | 6:48.47 | 6:33.05 | 30647 | 60126
4 | 13:21.52 | 0:29.58 | 60127 | 62359
5 | 13:51.35 | 5:08.35 | 62360 | 85494
6 | 18:59.70 | 2:24.56 | 85495 | 96350
7 | 21:24.51 | 5:18.27 | 96351 | 120227
8 | 26:43.03 | 1:15.45 | 120228 | 125897
9 | 27:58.48 | 1:35.29 | 125898 | 133051
10 | 29:34.02 | 0:56.71 | 133052 | 137322
11 | 30:30.73 | 5:20.34 | 137323 | 161356
12 | 35:51.32 | 3:18.29 | 161357 | 176235
13 | 39:09.61 | 2:04.48 | 176236 | 185583
14 | 41:14.34 | 0:25.20 | 185584 | 187478
15 | 41:39.54 | 4:37.42 | 187479 | 208295
16 | 46:17.21 | 2:10.42 | 208296 | 218087
17 | 48:27.63 | 3:44.19 | 218088 | 234906
18 | 52:12.07 | 0:27.09 | 234907 | 236940
19 | 52:39.16 | 2:10.06 | 236941 | 246696
20 | 54:49.22 | 7:24.24 | 246697 | 280020
21 | 62:13.46 | 2:08.05 | 280021 | 289625
22 | 64:21.51 | 10:13.57 | 289626 | 335657
Range status and errors
Selected range
Filename C:\Program Files\Exact Audio Copy\Flac\Mozart - Die Entfuhrung aus dem Serail CD1.wav
Peak level 100.0 %
Extraction speed 7.7 X
Range quality 100.0 %
Test CRC 5F326C9D
Copy CRC 5F326C9D
Copy OK
No errors occurred
End of status report
==== Log checksum C62E754B5DD206BBB5C6D20AAD4061A8676CB95EFDC54F721ECFB81493D70681 ====

LOG CD02:

Exact Audio Copy V1.0 beta 3 from 29. August 2011
EAC extraction logfile from 8. August 2015, 15:25
Yannick Nézet-Séguin / Mozart - Die Entfuhrung aus dem Serail CD2
Used drive : PIONEER BD-RW BDR-207M Adapter: 0 ID: 0
Read mode : Secure
Utilize accurate stream : Yes
Defeat audio cache : Yes
Make use of C2 pointers : No
Read offset correction : 667
Overread into Lead-In and Lead-Out : No
Fill up missing offset samples with silence : Yes
Delete leading and trailing silent blocks : No
Null samples used in CRC calculations : Yes
Used interface : Native Win32 interface for Win NT & 2000
Used output format : User Defined Encoder
Selected bitrate : 128 kBit/s
Quality : High
Add ID3 tag : No
Command line compressor : C:\Program Files\Exact Audio Copy\Flac\flac.exe
Additional command line options : -V -8 -T "Date=%year%" -T "Genre=%genre%" %source%
TOC of the extracted CD
Track | Start | Length | Start sector | End sector
---------------------------------------------------------
1 | 0:00.00 | 0:44.08 | 0 | 3307
2 | 0:44.08 | 1:00.56 | 3308 | 7863
3 | 1:44.64 | 3:01.05 | 7864 | 21443
4 | 4:45.69 | 3:37.36 | 21444 | 37754
5 | 8:23.30 | 1:17.60 | 37755 | 43589
6 | 9:41.15 | 2:09.67 | 43590 | 53331
7 | 11:51.07 | 1:55.62 | 53332 | 62018
8 | 13:46.69 | 6:02.59 | 62019 | 89227
9 | 19:49.53 | 10:30.12 | 89228 | 136489
10 | 30:19.65 | 0:18.31 | 136490 | 137870
11 | 30:38.21 | 6:17.74 | 137871 | 166219
12 | 36:56.20 | 2:48.51 | 166220 | 178870
13 | 39:44.71 | 1:14.08 | 178871 | 184428
14 | 40:59.04 | 3:27.19 | 184429 | 199972
15 | 44:26.23 | 2:55.00 | 199973 | 213097
16 | 47:21.23 | 2:20.22 | 213098 | 223619
17 | 49:41.45 | 6:56.31 | 223620 | 254850
18 | 56:38.01 | 2:29.30 | 254851 | 266055
19 | 59:07.31 | 3:55.02 | 266056 | 283682
20 | 63:02.33 | 1:20.42 | 283683 | 289724
Range status and errors
Selected range
Filename C:\Program Files\Exact Audio Copy\Flac\Mozart - Die Entfuhrung aus dem Serail CD2.wav
Peak level 100.0 %
Extraction speed 7.3 X
Range quality 100.0 %
Test CRC DC69CDF1
Copy CRC DC69CDF1
Copy OK
No errors occurred
End of status report
==== Log checksum D4C46989EBC4FD3098147392A522F614A6B88A952B90D0B8CCB78E46D779C030 ====
Спасибо Vilboa за предоставление материала!



Показать сообщения:    

Текущее время: 09-Дек 02:58

Часовой пояс: UTC + 3


Вы не можете начинать темы
Вы не можете отвечать на сообщения
Вы не можете редактировать свои сообщения
Вы не можете удалять свои сообщения
Вы не можете голосовать в опросах
Вы не можете прикреплять файлы к сообщениям
Вы не можете скачивать файлы