(Medieval, Sefardi, Andalusi) Tres Culturas - Judios, Cristianos y Musulmanes en la Espana Medieval (dir. Eduardo Paniagua)- 1998, WavPack (image+.cue) lossless


 

[Цитировать]

Tres CulturasJudios, Cristianos y Musulmanes en la España Medieval
Eduardo Paniagua
Жанр: Medieval, Sefardí, Andalusí
Страна-производитель диска: Spain
Год издания диска: 1998
Издатель (лейбл): Pneuma
Номер по каталогу: PN-100
Дата записи: 1998
Аудиокодек: WavPack
Тип рипа: image+.cue
Битрейт аудио: lossless
Продолжительность: 56:21
Источник: собственный рип
Наличие сканов в содержимом раздачи: да

Треклист

01. KI ESHMERÁ SHABAT Canción de Shabat, texto de Abraham Ibn Ezra (1089-1167) [3:54]
02. YA VIENE EL CATIVO Canción sefardí del Mediterraneo oriental [4:46]
03. NON ME MORDAS YA HABIBI Jarcha de la moaxaja nº 8 de Jehuda Halevi (1070-1141) [4:09]
04. NANI, NANI Canción de cuna sefardí oriental [5:33]
05. IODUJÁ RAIONAI Canción del Shabat, texto de Israel Najarda (Safed, siglo XVI) [4:43]
SEFARAD • Dirección EDUARDO PANIAGUA
JORGE ROZEMBLUM Canto sofista, coro, citolón y pandero
AURORA MORENO Canto solista, coro y tar
LUIS DELGADO Laúd, zanfona, santur, darbuga, tar y coro
EDUARDO PANIAGUA Qanun, flautas (fahl, alto, salamilla), coro
VIDA Y PEREGRINACIÓN
Música para el Camino de Santiago de Teobaldo I sde Navarsra (1201-1253), Alfonso X el Sabio (1221-1284) y Códice Calixtino
06. Amours me fait comencier [1:53]
Canción de amor de Teobaldo I de Navarra (1201-1253)s
07. Fiesta de la Circuncisión [1:41]
Anónimo andalusí en la tradición de Tunez
08. En quantas guisas os seus acorrer [1:28]
Melodía de la Cantiga 339 de Alfonso X (1221-1284)
09. U alguen a Jhesu Cristo por seus pecados negar [1:48]
Melodía de la Cantiga 281 de Alfonso X
10. A que por nos salvar [1:58]
Melodía de la Cantiga 169 de Alfonso X
11. Gran confiança na Madre de Deus [1:59]
Melodía de la Cantiga 268 de Alfonso Xs
12. Pois aos seus que ama defende todavia [2:11]
Melodía de la Cantiga 264 de Alfonso X
13. Dum pater familias [2:28]
Códice Calixtino. Santiago de Compostela siglo XII
14. Cogaudeant Catholici [2:02]
Atribuido a Magister Albertus Parisiensis. Códice Calixtino siglo XII
15. Phelipe [1:33]
Debate de Teobaldo I de Navarra
LUIS DELGADO Laúd, dutar, cítola, zanfona, tromba marina, viola de teclas, darbuga, bendir, pandero, tar, qaraquelas y campanillas
EDUARDO PANIAGUA Salterio, qanun, flautas soprano, tenor y pastoril,nay, tromba marina, darbuga, taliba, pandero, tar, sistro de arena, campana y voces
16. MUWWAL ISBIHÁN «No todo el que pide felicidad la encuentra» [3:06]
17. SANÁ Q'AIM WA NISF TAB S-SIKA [7:20]
18. INSHÁD ISBIHÁN «Al contemplar no ví a otro amado» Al-Sushtarí (1212-1269) [3:50]
EL ARABÍ SERGHINI Canto
OMAR METIOUI Laúd árabe
AHMED AL-GAZI Viola alto

Исполнители

Jorge Rozemblum: canto sofista, coro, citolón y pandero
Aurora Moreno: canto solista, coro y tar
Luis Delgado:laúd, zanfona, santur, darbuga, coro, dutar, cítola, tromba marina, viola de teclas, bendir, pandero, tar, qaraquelas y campanillas
Eduardo Paniagua: qanun, flautas (fahl, alto, salamilla), coro, salterio, nay, tromba marina, darbuga, taliba, pandero, tar, sistro de arena, campana y voces
El Arabí Serghini: canto
Omar Metioui: laúd árabe
Ahmed Al-Gazi: viola alto

log EAC

Exact Audio Copy V0.99 prebeta 5 from 4. May 2009
Отчёт EAC об извлечении, выполненном 5. августа 2015, 14:21
Eduardo Paniagua / Tres Culturas - Judios, Cristianos y Musulmanes en la Espana Medieval
Дисковод: PIONEER DVD-RW DVR-219L Adapter: 1 ID: 1
Режим чтения : Достоверность
Использование точного потока : Да
Отключение кэша аудио : Да
Использование указателей C2 : Нет
Коррекция смещения при чтении : 6
Способность читать области Lead-in и Lead-out : Нет
Заполнение пропущенных сэмплов тишиной : Да
Удаление блоков с тишиной в начале и конце : Нет
При вычислениях CRC использовались нулевые сэмплы : Да
Интерфейс : Встроенный Win32-интерфейс для Win NT/2000
Выходной формат : Внутренние WAV-операции
Формат сэмплов : 44.100 Гц; 16 бит; стерео
TOC извлечённого CD
Трек | Старт | Длительность | Начальный сектор | Конечный сектор
---------------------------------------------------------------------
1 | 0:00.00 | 3:53.67 | 0 | 17541
2 | 3:53.67 | 4:46.03 | 17542 | 38994
3 | 8:39.70 | 4:09.05 | 38995 | 57674
4 | 12:49.00 | 5:32.65 | 57675 | 82639
5 | 18:21.65 | 4:43.20 | 82640 | 103884
6 | 23:05.10 | 1:53.12 | 103885 | 112371
7 | 24:58.22 | 1:40.73 | 112372 | 119944
8 | 26:39.20 | 1:27.50 | 119945 | 126519
9 | 28:06.70 | 1:47.60 | 126520 | 134604
10 | 29:54.55 | 1:57.57 | 134605 | 143436
11 | 31:52.37 | 1:58.45 | 143437 | 152331
12 | 33:51.07 | 2:10.38 | 152332 | 162119
13 | 36:01.45 | 2:27.60 | 162120 | 173204
14 | 38:29.30 | 2:02.37 | 173205 | 182391
15 | 40:31.67 | 1:33.10 | 182392 | 189376
16 | 42:05.02 | 3:05.43 | 189377 | 203294
17 | 45:10.45 | 7:19.62 | 203295 | 236281
18 | 52:30.32 | 3:50.18 | 236282 | 253549
Характеристики диапазона извлечения и сообщения об ошибках
Выбранный диапазон
Имя файла C:\Documents and Settings\Agni\Мои документы\EAC\Eduardo Paniagua - Tres Culturas.wav
Пиковый уровень 100.0 %
Качество диапазона 100.0 %
CRC теста 6E788D59
CRC копии 6E788D59
Копирование... OK
Ошибок не произошло
AccurateRip: сводка
Трек 1 точное извлечение (доверие 3) [238C98C2]
Трек 2 точное извлечение (доверие 3) [78C1CD39]
Трек 3 точное извлечение (доверие 3) [49AD575F]
Трек 4 точное извлечение (доверие 3) [95FBC874]
Трек 5 точное извлечение (доверие 3) [CA9D8A41]
Трек 6 точное извлечение (доверие 3) [551E0B3D]
Трек 7 точное извлечение (доверие 3) [E07E3FEC]
Трек 8 точное извлечение (доверие 3) [BCD4635E]
Трек 9 точное извлечение (доверие 3) [D8A2548D]
Трек 10 точное извлечение (доверие 3) [AA0DF439]
Трек 11 точное извлечение (доверие 3) [CD865554]
Трек 12 точное извлечение (доверие 3) [F81A247A]
Трек 13 точное извлечение (доверие 3) [23FB80A2]
Трек 14 точное извлечение (доверие 3) [D9C1567C]
Трек 15 точное извлечение (доверие 3) [47C7C6E5]
Трек 16 точное извлечение (доверие 3) [15A88B43]
Трек 17 точное извлечение (доверие 3) [4BAE28AD]
Трек 18 точное извлечение (доверие 3) [98DDEF5D]
Все треки извлечены точно
Конец отчёта



Показать сообщения:    

Текущее время: 11-Дек 11:06

Часовой пояс: UTC + 3


Вы не можете начинать темы
Вы не можете отвечать на сообщения
Вы не можете редактировать свои сообщения
Вы не можете удалять свои сообщения
Вы не можете голосовать в опросах
Вы не можете прикреплять файлы к сообщениям
Вы не можете скачивать файлы