[TR24][DSD] Johannes Brahms: Symphony No. 1, Hungarian Dance, Haydn Variations - Budapest Festival Orchestra, Iván (Ivan) Fischer - 2009 (Classical)


Статистика раздачи [Обновить пиров]
Размер:  2.75 GB   |    Зарегистрирован:  8 месяцев 20 дней   |    Скачан:  0 раз

Полного источника не было: Никогда

 
   
 
 
 

[Цитировать]

Johannes Brahms
Symphony No. 1
Hungarian Dance · Haydn Variations

Budapest Festival Orchestra · Iván Fischer
-Год издания: 2009 | Жанр: Classical
Издатель: Channel Classics Records
Продолжительность: 01:07:27
Наличие сканов: Sleeve, Digital Booklet- -Контейнер: FLAC (*.flac) | Тип рипа: tracks
Разрядность: 24bit / 192kHz | Количество каналов: 2.0
-Треклист
Johannes Brahms (1833-1897)
Hungarian Dance No. 14 (arr. Iván Fischer)
01.Hungarian Dance No. 14(2:37)
Variations on a theme by Joseph Haydn Op. 56a (1873)
02. I. Thema, Chorale St. Antoni (Andante) (2:05)
03. II. Variation 1, Poco più animato (Andante con moto) (1:13)
04. III. Variation 2, Più vivace (Vivace) (1:01)
05. IV. Variation 3, Con moto (1:42)
06. V. Variation 4, Andante con moto (Andante) (1:45)
07. VI. Variation 5, Vivace (Poco presto) (1:01)
08. VII. Variation 6, Vivace (1:19)
09. VIII. Variation 7, Grazioso (3:00)
10. IX. Variation 8, Presto non troppo (Poco presto) (1:04)
11. X. Finale, Andante (3:54)
Symphony No. 1 in C minor Op. 68 (1876)
12. I. Un poco sostenuto-Allegro (16:26)
13. II. Andante sostenuto (8:49)
14. III. Un poco allegretto grazioso (4:34)
15. IV. Adagio-Allegro non troppo ma con brio (16:56)

О релизе


“An orchestra musician is an artist, not an employee, and artists must be given the chance to take initiatives and to be creative. Only an orchestra of true artists - making music as a highly disciplined team - is able to realize the dreams of the composers and pass on an uplifting experience to the audience, touching all listeners deep in their heart. This is our aim for which the Budapest Festival Orchestra has been created." --Iván Fischer
(…) Ever the radical, he effectively refashions each work from scratch. The Haydn variations have a grace and lightness of touch we don’t often hear in them. The first, meanwhile, is monumental in every sense of the word: a huge, noble assertion of the inherent dignity of human experience and creative endeavour that leaves you feeling enriched and exalted. --The Guardian
(...) one of Brahms’s Hungarian dances, arranged by Fischer for strings, a hesitating, melancholy delight; then the Brahms Variations on a Theme by Haydn, sparkling and strong. (...) The fruits of this arrangement can be enjoyed only by playing the disc uninterrupted. Fischer’s rather schoolmasters plan is to reveal the influences and stepping stones that led to the master work: Hungarian folk music, plus classical poise allied to contrapuntal strength. But the CD never feels like homework. These Budapest players have Hungarian folk music in their blood, and their national inflections of phrasing, tempo and string fingering make the symphony quiver with new life. (...) All this plus the usual finesse of tone and colour expected from this orchestra and conductor. Nobody can top the natural sympathy and understanding shown in this outstanding performance. --The Times
(…) Yet Fischer’s readings of the Tchaikovsky Symphonies are immense powerful and, strange to say of such familiar terrain, of the revelatory. Not surprisingly, all that is predictable about Fischer’s latest Brahms recording with The BFO is its combination of stunning excellence and originality. (…) Throughout this recording, Brahms’s orchestration, proverbially thick in the best circumstances and apt turn muddy in the worst, emerges with a patina that is positively luminous. (…) Lovers of orchestral music who grow pessimistic for the future of the art will find their faith restored by these wonderfully creative, vivid and refreshing interpretations. If further proof were required, they argue for Ivan Fischer’s place among the half-dozen most gifted and important conductor’ before the public today. --International Record Review
Personnel:
Budapest Festival Orchestra
Iván Fischer, conductor
Recorded: Palace of Arts, Budapest, January 2009

ОтчётыДинамический диапазон

foobar2000 1.3.8 / Dynamic Range Meter 1.1.1
log date: 2015-08-14 00:11:13
--------------------------------------------------------------------------------
Analyzed: Iván Fischer, Budapest Festival Orchestra / Brahms: Symphony No. 1, Hungarian Dance & Haydn Variations
--------------------------------------------------------------------------------
DR Peak RMS Duration Track
--------------------------------------------------------------------------------
DR12 -13.92 dB -30.54 dB 2:37 01-Hungarian Dance No. 14 (arr. Iván Fischer)
DR12 -11.21 dB -28.20 dB 2:05 02-Variations on a theme by Joseph Haydn Op. 56a (1873) - I. Thema, Chorale St. Antoni (Andante)
DR12 -7.45 dB -24.90 dB 1:13 03-Variations on a theme by Joseph Haydn Op. 56a (1873) - II. Variation 1, Poco più animato (Andante con moto)
DR13 -8.26 dB -25.45 dB 1:01 04-Variations on a theme by Joseph Haydn Op. 56a (1873) - III. Variation 2, Più vivace (Vivace)
DR11 -13.92 dB -29.79 dB 1:42 05-Variations on a theme by Joseph Haydn Op. 56a (1873) - IV. Variation 3, Con moto
DR11 -12.82 dB -28.29 dB 1:45 06-Variations on a theme by Joseph Haydn Op. 56a (1873) - V. Variation 4, Andante con moto (Andante)
DR13 -13.22 dB -29.93 dB 1:01 07-Variations on a theme by Joseph Haydn Op. 56a (1873) - VI. Variation 5, Vivace (Poco presto)
DR12 -2.53 dB -19.23 dB 1:19 08-Variations on a theme by Joseph Haydn Op. 56a (1873) - VII. Variation 6, Vivace
DR12 -11.97 dB -28.67 dB 3:00 09-Variations on a theme by Joseph Haydn Op. 56a (1873) - VIII. Variation 7, Grazioso
DR11 -18.26 dB -32.17 dB 1:04 10-Variations on a theme by Joseph Haydn Op. 56a (1873) - IX. Variation 8, Presto non troppo (Poco presto)
DR13 -2.30 dB -21.23 dB 3:54 11-Variations on a theme by Joseph Haydn Op. 56a (1873) - X. Finale, Andante
DR14 -1.57 dB -22.14 dB 16:26 12-Symphony No. 1 in C minor Op. 68 (1876) - I. Un poco sostenuto-Allegro
DR13 -8.84 dB -28.15 dB 8:49 13-Symphony No. 1 in C minor Op. 68 (1876) - II. Andante sostenuto
DR13 -6.97 dB -25.12 dB 4:34 14-Symphony No. 1 in C minor Op. 68 (1876) - III. Un poco allegretto grazioso
DR14 -0.34 dB -20.70 dB 16:56 15-Symphony No. 1 in C minor Op. 68 (1876) - IV. Adagio-Allegro non troppo ma con brio
--------------------------------------------------------------------------------
Number of tracks: 15
Official DR value: DR12
Samplerate: 192000 Hz
Channels: 2
Bits per sample: 24
Bitrate: 5864 kbps
Codec: FLAC
================================================================================

Скриншот спектра частот

Доп. информация

При скачивании, если необходимо, переименуйте папку, в которой будет находиться альбомБольшая просьба к скачавшим поддерживать раздачу! Помогайте другим, ведь вам тоже может понадобиться помощь!Не забываем говорить "Спасибо"!Комментарии приветствуются!
Ivan Fischer Hi-Res
[teatrix.ru].t21996.torrent 
Торрент: Зарегистрирован [ 2016-03-20 12:47 ] · A1055A9E99171E26E51F364242961FCE10B9CA30

Скачать .torrent

Скачать

16 KB

Статус: проверено
Скачан: 0 раз
Размер: 2.75 GB
terms.php



Быстрый ответ

Имя:

      
Для отправки сообщений необходимо включить JavaScript
Показать сообщения:    

Текущее время: 10-Дек 09:54

Часовой пояс: UTC + 3


Вы можете начинать темы
Вы можете отвечать на сообщения
Вы не можете редактировать свои сообщения
Вы не можете удалять свои сообщения
Вы не можете голосовать в опросах
Вы не можете прикреплять файлы к сообщениям
Вы можете скачивать файлы