Советские звезды. Начало пути (Эфир от 14.08.2015) [2010 г., Документальный, DVB]


Статистика раздачи [Обновить пиров]
Размер:  835 MB   |    Зарегистрирован:  8 месяцев 20 дней   |    Скачан:  0 раз

Полного источника не было: Никогда

 
   
 
 
 

[Цитировать]

Советские звезды. Начало пути (Эфир от 14.08.2015)
Страна: Россия
Жанр: Документальный
Продолжительность: 00:39:01
Язык: Русский
Год выпуска: 2010 г.
Выпущено: Россия, Твц.
Описание: Чего в своём творчестве стыдится Ирина Аллегрова, и за что Ларису Долину выслали из Москвы? В каких целях Владимир Винокур использовал свою популярность, и почему Лев Лещенко удирал от зрителей? Как Людмила Гурченко победила испанскую секс-бомбу, и почему Татьяна Доронина дала обет не сниматься в кино? Кто наживался на труде советских артистов, и какую цену платили звёзды за народную любовь?-Ответы на эти вопросы дают: Владимир Винокур, Иосиф Кобзон, Лев Лещенко, Ирина Аллегрова, Лариса Долина, Лайма Вайкуле, Татьяна Догилева, Ольга Остроумова, Леонид Серебренников, Борис Гребенщиков, Артемий Троицкий, Александр Васильев и другие.
Источник: Собственный рип
Доп. информация: Рип чистый. Без посторонних надписей. Выкладывается как есть.

Качество: DVB
Контейнер: TS
Видео кодек: AVC
Аудио кодек: MP2
Видео: 720x576 (16:9) 25.00fps 2 651 Kbps, 0.256 bit/pixel
Аудио: MPEG Audio 48000Hz stereo 192 Кбит/сек

Скриншоты

Скринлист

MediaInfo

Общее
Идентификатор : 0 (0x0)
Полное имя : F:\Раздачи\Программы, передачи, шоу, спектакли\Советские звезды. Начало пути (2010, DVB, Документальный, Эфир от 14.08.2015) (by Nokia5150).ts
Формат : MPEG-TS
Размер файла : 835 Мбайт
Продолжительность : 39 м.
Режим общего битрейта : Переменный
Общий поток : 2993 Кбит/сек
Видео
Идентификатор : 301 (0x12D)
Идентификатор меню : 1 (0x1)
Формат : AVC
Формат/Информация : Advanced Video Codec
Профиль формата : Main@L3
Параметр CABAC формата : Да
Параметр ReFrames формата : 3 кадра
Идентификатор кодека : 27
Продолжительность : 39 м.
Битрейт : 2651 Кбит/сек
Ширина : 720 пикселей
Высота : 576 пикселей
Соотношение сторон : 16:9
Частота кадров : 25,000 кадров/сек
Стандарт вещания : Component
Цветовое пространство : YUV
Субдискретизация насыщенности : 4:2:0
Битовая глубина : 8 бит
Тип развёртки : Чересстрочная
Порядок развёртки : Верхнее поле первое
Бит/(Пиксели*Кадры) : 0.256
Размер потока : 740 Мбайт (89%)
colour_range : Limited
Основные цвета : BT.601 PAL
Характеристики трансфера : BT.470 System B, BT.470 System G
Коэффициенты матрицы : BT.601
Аудио
Идентификатор : 302 (0x12E)
Идентификатор меню : 1 (0x1)
Формат : MPEG Audio
Версия формата : Version 1
Профиль формата : Layer 2
Идентификатор кодека : 3
Продолжительность : 39 м.
Вид битрейта : Постоянный
Битрейт : 192 Кбит/сек
Каналы : 2 канала
Частота : 48,0 КГц
Метод сжатия : С потерями
Размер потока : 53,6 Мбайт (6%)

[teatrix.ru].t21997.torrent 
Торрент: Зарегистрирован [ 2016-03-20 12:47 ] · 7B7265EE2ED6F33BFBE16403C24C5598AB65D306

Скачать .torrent

Скачать

17 KB

Статус: проверено
Скачан: 0 раз
Размер: 835 MB
terms.php



Быстрый ответ

Имя:

      
Для отправки сообщений необходимо включить JavaScript
Показать сообщения:    

Текущее время: 10-Дек 00:20

Часовой пояс: UTC + 3


Вы можете начинать темы
Вы можете отвечать на сообщения
Вы не можете редактировать свои сообщения
Вы не можете удалять свои сообщения
Вы не можете голосовать в опросах
Вы не можете прикреплять файлы к сообщениям
Вы можете скачивать файлы