The Yoga Collective - Mermaid [2015, H.264, WEBRip, ENG] (Видеоурок)


Статистика раздачи [Обновить пиров]
Размер:  908 MB   |    Зарегистрирован:  8 месяцев 20 дней   |    Скачан:  0 раз

Полного источника не было: Никогда

 
   
 
 
 

[Цитировать]

Mermaid- -Производитель: The Yoga Collective
Тип раздаваемого материала: Видеоурок
Автор: Lauren Eckstrom
Продолжительность: 60 m
Сайт производителя: www.theyogacollective.com
Год выпуска: 2015
Язык: Английский
Перевод: Отсутствует
Описание: 60-минутная класс от Лорен Eckstrom Русалку, представлениям и Vinyasa йога для открытия бедра и сердце, работы по backbends, повысить гибкость в плечи ... и везде в орган!
Наслаждайтесь изгиба и скручивания ваш путь в "Русалочка"представляют, который открывается в бедра, как она удлиняет назад в красивый колесной арки напоминает Зотову изображения. Она позволяет в верхней части тела к высокой деловой активности во время открытия сердца и увеличения численности.
Культивировать и ритмичность этих мифических существ и получите удовольствие от ощущения что такое телевикторина после того как класс. Вы можете начать занятия йогой на спине с накопленные полотенце под средней на верхней части спины. Идея состоит в том, чтобы открыть обратно в рамках подготовки к практике.-A 60-minute class from Lauren Eckstrom, Mermaid blends Power and Vinyasa yoga to open the hips and heart, work on backbends, increase flexibility in the shoulders...and everywhere else in the body!
Enjoy bending and twisting your way into Mermaid Pose, which opens the hips as it lengthens the back into a beautiful arch reminiscent of mermaid images. It allows the upper body to become buoyant while opening the heart and increasing strength.
Cultivate the power and fluidity of these mythical creatures and enjoy feeling lighthearted once class is over. You’ll start yoga class on your back with a rolled-up towel placed underneath the mid to upper back. The idea is to open the back in preparation for practice.--Level: Intermediate
Style: Power, Vinyasa
Focus: Hips, Flexibility, Backbends, Heart Opening, Shoulders--

Media Info

General
Complete name : Travis Eliot Yoga - Power Yoga Flow 40 min.mp4
Format : MPEG-4
Format profile : Base Media / Version 2
Codec ID : mp42
File size : 599 MiB
Duration : 42mn 9s
Overall bit rate mode : Variable
Overall bit rate : 1 985 Kbps
Encoded date : UTC 2036-02-06 06:28:16
Tagged date : UTC 2036-02-06 06:28:16
Writing application : HandBrake 0.10.2 2015060900
Video
ID : 1
Format : AVC
Format/Info : Advanced Video Codec
Format profile : Main@L4.0
Format settings, CABAC : Yes
Format settings, ReFrames : 4 frames
Codec ID : avc1
Codec ID/Info : Advanced Video Coding
Duration : 42mn 9s
Bit rate : 1 818 Kbps
Width : 1 280 pixels
Height : 720 pixels
Display aspect ratio : 16:9
Frame rate mode : Variable
Frame rate : 23.976 fps
Minimum frame rate : 23.974 fps
Maximum frame rate : 23.981 fps
Color space : YUV
Chroma subsampling : 4:2:0
Bit depth : 8 bits
Scan type : Progressive
Bits/(Pixel*Frame) : 0.082
Stream size : 548 MiB (92%)
Writing library : x264 core 142 r2479 dd79a61
Encoded date : UTC 2036-02-06 06:28:16
Tagged date : UTC 2036-02-06 06:28:16
Color primaries : BT.709-5, BT.1361, IEC 61966-2-4, SMPTE RP177
Transfer characteristics : BT.709-5, BT.1361
Matrix coefficients : BT.709-5, BT.1361, IEC 61966-2-4 709, SMPTE RP177
Audio
ID : 2
Format : AAC
Format/Info : Advanced Audio Codec
Format profile : LC
Codec ID : 40
Duration : 42mn 9s
Bit rate mode : Variable
Bit rate : 160 Kbps
Channel(s) : 2 channels
Channel positions : Front: L R
Sampling rate : 48.0 KHz
Compression mode : Lossy
Stream size : 48.4 MiB (8%)
Title : Stereo
Encoded date : UTC 2036-02-06 06:28:16
Tagged date : UTC 2036-02-06 06:28:16
Качество: WEBRip
Формат: MP4
Видео кодек: H.264
Аудио кодек: AAC
Видео: AVC, 1280x720, 16:9, 25.000 fps, ~ 1818 Kbps
Аудио: AAC, 48.0 KHz, ~ 130.0 Kbps, 2 channels

Скриншоты

[teatrix.ru].t22002.torrent 
Торрент: Зарегистрирован [ 2016-03-20 12:47 ] · E3D4DA7915AE8785C0FD404FCFC21FD48C5A4DE0

Скачать .torrent

Скачать

36 KB

Статус: проверено
Скачан: 0 раз
Размер: 908 MB
terms.php



Быстрый ответ

Имя:

      
Для отправки сообщений необходимо включить JavaScript
Показать сообщения:    

Текущее время: 10-Дек 02:16

Часовой пояс: UTC + 3


Вы можете начинать темы
Вы можете отвечать на сообщения
Вы не можете редактировать свои сообщения
Вы не можете удалять свои сообщения
Вы не можете голосовать в опросах
Вы не можете прикреплять файлы к сообщениям
Вы можете скачивать файлы