[TR24][SM][OF] Губайдулина / Sofia Gubaidulina - Canticle of the Sun - Gidon Kremer, Nicolas Altstaedt, Kremerata Baltica & Riga Chamber Choir "Kamer..." - 2012 [ECM New Series] (Classical)


Статистика раздачи [Обновить пиров]
Размер:  600 MB   |    Зарегистрирован:  8 месяцев 15 дней   |    Скачан:  0 раз

Полного источника не было: Никогда

 
   
 
 
 

[Цитировать]

·
·
·
·

Sofia Gubaidulina (*1931)Жанр: Miscellanious
Носитель: Official Digital Download
Дата и место записи: July 2006 & 2010 at Lockenhaus Festival
Издатель(лейбл): © ECM Records GmbH
Продолжительность: 01:09:03
Наличие сканов в содержимом раздачи: cover & booklet
Контейнер: FLAC (*.flac)
Разрядность: 24/44,1
Количество каналов: 2.0
Формат: tracks
Источник: qobuz.com
Pелизер: WEB (thanks to the original customer)

New Series
2256

Треклист & Исполнители

01 The Lyre of Orpheus (2006) 23:52
for violin, percussion and string orchestra
Dedicated to Gidon Kremer
Gidon Kremer violin
Marta Sudraba violoncello
Kremerata Baltica
Canticle of the Sun (1997, rev. 1998)
for violoncello, chamber choir, percussion and celesta
Dedicated to Mstislav Rostropovich
02 Glorification of the Creator, and His Creations - the Sun and the Moon 10:12
03 Glorification of the Creator, the Maker of the Four Elements: Air, Water, Fire and Earth 13:19
04 Glorification of Life 14:29
05 Glorification of Death 07:23
Nicolas Altstaedt violoncello
Andrei Pushkarev percussion
Rihards Zaļupe percussion
Rostislav Krimer celesta
Chamber Choir "Kamēr..."
Māris Sirmais conductor

Dynamic Range Meter

foobar2000 1.2.6 / Dynamic Range Meter 1.1.1
log date: 2015-08-15 21:50:35
--------------------------------------------------------------------------------
Analyzed: Gidon Kremer, Marta Sudraba, Kremerata Baltica / Sofia Gubaidulina: Canticle of the Sun (1)
Nicolas Altstaedt, Andrei Pushkarev, Rihards Zalupe, Rostislav Krimer, Riga Chamber Choir Kamer., Maris Sirmais / Sofia Gubaidulina: Canticle of the Sun (2-5)
--------------------------------------------------------------------------------
DR Peak RMS Duration Track
--------------------------------------------------------------------------------
DR17 0.00 dB -24.03 dB 23:53 01-The Lyre of Orpheus (2006)
DR18 -3.56 dB -28.28 dB 10:13 02-The Canticle of the Sun (1997, rev. 1998): Glorification of the Creator, and His Creations - the Sun and the Moon
DR15 -0.10 dB -22.01 dB 13:20 03-The Canticle of the Sun (1997, rev. 1998): Glorification of the Creator, the Maker of the four elements: air, water, fire and earth
DR21 -3.15 dB -32.13 dB 14:29 04-The Canticle of the Sun (1997, rev. 1998): Glorification of life
DR18 -0.10 dB -28.38 dB 7:23 05-The Canticle of the Sun (1997, rev. 1998): Glorification of death
--------------------------------------------------------------------------------
Number of tracks: 5
Official DR value: DR18
Samplerate: 44100 Hz
Channels: 2
Bits per sample: 24
Bitrate: 1121 kbps
Codec: FLAC
================================================================================
[teatrix.ru].t22004.torrent 
Торрент: Зарегистрирован [ 2016-03-20 12:47 ] · D499C36A4576801CDE35ED11026C86860EEAA7D3

Скачать .torrent

Скачать

13 KB

Статус: проверено
Скачан: 0 раз
Размер: 600 MB
terms.php



Быстрый ответ

Имя:

      
Для отправки сообщений необходимо включить JavaScript
Показать сообщения:    

Текущее время: 04-Дек 19:22

Часовой пояс: UTC + 3


Вы можете начинать темы
Вы можете отвечать на сообщения
Вы не можете редактировать свои сообщения
Вы не можете удалять свои сообщения
Вы не можете голосовать в опросах
Вы не можете прикреплять файлы к сообщениям
Вы можете скачивать файлы