Знаменитые режиссеры Голливуда (40 эпизодов из 77) / Hollywood's Best Film Directors (Мартен Сен-Шарль / Martin Saint Charles, Давид Фрейдт / David Freydt) [2006 - 2011, документальный, кинематограф, DVB] VO (Первый канал)


Статистика раздачи [Обновить пиров]
Размер:  23.83 GB   |    Зарегистрирован:  8 месяцев 19 дней   |    Скачан:  0 раз

Полного источника не было: Никогда

 
   
 
 
 

[Цитировать]

Знаменитые режиссеры Голливуда
Hollywood's Best Film Directors- Дата/Год выпуска: 2006 - 2011
Страна: Франция, США
Жанр: документальный, кинематограф
Продолжительность: 17:15:08 (40 по ~00:26:00)
Перевод: Студийный (одноголосый закадровый) по заказу ЗАО "Первый канал. Всемирная сеть"
Доп. инфо о переводе: Первый канал
Русские субтитры: нет
Режиссер: Мартен Сен-Шарль / Martin Saint Charles, Давид Фрейдт / David Freydt
Телеканал: Время: далекое и близкое
Описание: Документальный сериал о самых влиятельных кинорежиссерах Голливуда XX века, внесших наибольший вклад и оставивших самый яркий след в истории этой области творчества. Каждое поколение рождает своих кумиров, как в политике, так и в искусстве, и музыке. Сегодня их шедевры остаются любимы миллионами, ведь в свое время они перевернули сознание многих людей, продемонстрировав новые возможности и глубину всеми любимого искусства — кино. (анонс канала "Время")
Доп. информация: DVB-S. Показ эпизодов идет не по порядку. Канал не анонсирует показ всего цикла.

качество: DVB
формат: MKV
Видео: MPEG Video 2, 720x576@768x576 (4:3), 25 fps, ~3251 kbps avg, 0.314 bit/pixel
Аудио: MPEG Audio 2, 2 ch, 48 kHz, ~192.00 kbps avg

Список выпусков/серий

01. Джоэл Шумахер / Joel Schumacher (2006)
02. Ричард 'Дик' Доннер / Richard Donner (2006)
05. Уильям Фридкин / William Friedkin (2007)
06. Айван Райтман / Ivan Reitman (2007)
07. Эдриан Лайн / Adrian Lyne (2007)
08. Роджер Дональдсон / Roger Donaldson (2007)
09. Фрэнсис Форд Коппола / Francis Ford Coppola (2007)
13. Крис Коламбус / Chris Columbus (2007)-14. Джордж Лукас / George Lucas (2008)
17. Питер Сигал / Peter Segal (2008)
18. Гэрри Маршалл / Garry Marshall (2008)
19. Джон Тёртелтауб / Jon Turteltaub (2009)
20. Джон Карпентер / John Carpenter (2009)
21. Дэвид Цукер / David Zucker (2009)
22. Джон Бэдэм / John Badham (2009)
23. Энди Теннант / Andy Tennant (2009)
24. Майкл Манн / Michael Mann (2009)
25. Брайан Сингер / Bryan Singer (2009)
26. Даг Лайман / Doug Liman (2009)-27. Рэндал Клайзер / Randal Kleiser (2009)
28. Кёртис Хэнсон / Curtis Hanson (2010)
29. Роберт Бентон / Robert Benton (2010)
30. Милош Форман / Milos Forman (2010)
33. Джеймс Мэнголд / James Mangold (2010)
34. Тэйлор Хэкфорд / Taylor Hackford (2010)
35. Роб Коэн / Rob Cohen (2010)
36. Джо Данте / Joe Dante (2010)
37. Марк Райделл / Mark Rydell (2010)
38. Джон Глен / John Glen (2010)-40. Джон Синглтон / John Singleton (2011)
41. Майк Фиггис / Mike Figgis (2011)
42. Майкл Эптед / Michael Apted (2011)
43. Майк Ньюэлл / Mike Newell (2009)
44. Рон Ховард / Ron Howard (2011)
45. Атом Эгоян / Atom Egoyan (2009)
46. Мишель Гондри / Michel Gondry (2009)
47. Деннис Дуган / Dennis Dugan (2011)
50. Роланд Эмерих / Roland Emmerich (2011)
51. Джеймс Брукс / James L. Brooks (2011)
52. Пол Гринграс / Paul Greengrass (2011)

MediaInfo

Общее
Уникальный идентификатор : 230904253415179206804058402020720124657 (0xADB68AA5E54B780085B9CEDBD90022F1)
Полное имя : F:\My Torrents 3\[apreder]Hollywood's_Best_Film_Directors\01. Joel_Schumacher(2006)DVB.mkv
Формат : Matroska
Версия формата : Version 2
Размер файла : 635 Мбайт
Продолжительность : 25 м.
Режим общего битрейта : Переменный
Общий поток : 3513 Кбит/сек
Дата кодирования : UTC 2015-08-15 14:56:41
Программа кодирования : mkvmerge v8.2.0 ('World of Adventure') 64bit
Библиотека кодирования : libebml v1.3.1 + libmatroska v1.4.2
Attachements : cover.jpg / cover_small.jpg
TITLE : Hollywood's Best Film Directors
IMDB : tt1472713
DATE_RELEASED : 2006-00-00
LAW_RATING : 12+
GENRE : Biography
ACTOR : Joel Schumacher
DIRECTOR : Martin Saint Charles, David Freydt
KEYWORDS : rutracker.org
Видео
Идентификатор : 1
Формат : MPEG Video
Версия формата : Version 2
Профиль формата : Main@Main
Параметр BVOP формата : Да
Параметр матрицы формата : Выборочная
Параметр GOP формата : Variable
Format_Settings_PictureStructure : Frame
Идентификатор кодека : V_MPEG2
Идентификатор кодека/Информация : MPEG 1 or 2 Video
Продолжительность : 25 м.
Вид битрейта : Переменный
Битрейт : 3251 Кбит/сек
Ширина : 720 пикселей
Высота : 576 пикселей
Соотношение сторон : 4:3
Режим частоты кадров : Постоянный
Частота кадров : 25,000 кадров/сек
Стандарт вещания : PAL
Цветовое пространство : YUV
Субдискретизация насыщенности : 4:2:0
Битовая глубина : 8 бит
Тип развёртки : Чересстрочная
Порядок развёртки : Верхнее поле первое
Метод сжатия : С потерями
Бит/(Пиксели*Кадры) : 0.314
Временной код первого кадра : 00:00:00:00
Оригинал временного кода : Group of pictures header
Размер потока : 588 Мбайт (93%)
Default : Да
Forced : Нет
Аудио
Идентификатор : 2
Формат : MPEG Audio
Версия формата : Version 1
Профиль формата : Layer 2
Идентификатор кодека : A_MPEG/L2
Идентификатор кодека/Подсказка : MP2
Продолжительность : 25 м.
Вид битрейта : Постоянный
Битрейт : 192 Кбит/сек
Каналы : 2 канала
Частота : 48,0 КГц
Метод сжатия : С потерями
Размер потока : 34,7 Мбайт (5%)
Язык : Russian
Default : Да
Forced : Нет

Скриншоты


Резервные скриншоты


-

Внимание! Раздача ведётся путём добавления новых выпусков

Внимание! Раздача ведётся путём добавления новых выпусков; при каждом добавлении создаётся новый торрент. Чтобы начать докачку нового выпуска, пользователям необходимо сделать следующее:
(1) остановить скачивание,
(2) удалить старый торрент у себя из клиента (старые серии удалять не надо),
(3) скачать новый торрент и запустить его у себя в клиенте вместо старого, при этом указать клиенту путь в старую папку куда и должно происходить скачивание новых выпусков.
Ваш клиент при этом должен произвести хеширование (проверку) старой папки (если не производит сам - помогите ему сделать это). В результате он будет докачивать только те выпуски, которых у Вас ещё нет. Старые выпуски при этом не удаляются, а продолжают раздаваться!
Eсли Вы уже удалили старые выпуски, то предотвратить их повторную закачку можно, сняв галочки в соответствующих местах при запуске нового торрента. По возможности, желательно не удалять старые выпуски как можно дольше, чтобы релизёр не только продолжал раздавать старые выпуски, но и смог сконцентрироваться на новых.
-[2'549]
[teatrix.ru].t22005.torrent 
Торрент: Зарегистрирован [ 2016-03-20 12:47 ] · 45DC0A44B0888973BAA8B0375B9783BF1D34147A

Скачать .torrent

Скачать

122 KB

Статус: проверено
Скачан: 0 раз
Размер: 23.83 GB
terms.php



Показать сообщения:    

Текущее время: 08-Дек 17:22

Часовой пояс: UTC + 3


Вы не можете начинать темы
Вы не можете отвечать на сообщения
Вы не можете редактировать свои сообщения
Вы не можете удалять свои сообщения
Вы не можете голосовать в опросах
Вы не можете прикреплять файлы к сообщениям
Вы можете скачивать файлы