[TR24][OF] Raffi Besalyan (Րաֆֆի Բէսալյան, Раффи Бесалян) - The Return (Sergei Rachmaninoff/Сергей Рахманинов, Arno Babadjanian/Арно Бабаджанян) - 2015 (Classical, Piano)


Статистика раздачи [Обновить пиров]
Размер:  985 MB   |    Зарегистрирован:  8 месяцев 21 день   |    Скачан:  0 раз

Полного источника не было: Никогда

 
   
 
 
 

[Цитировать]

Sergei Rachmaninoff
Arno Babadjanian
The Return
Raffi Besalyan
-Год издания: 2015 | Жанр: Classical
Издатель: Sono Luminus | Продолжительность: 01:05:35
Наличие сканов: Sleeve, Digital Booklet- -Raffi Besalyan (piano Steinway)-Контейнер: FLAC (*.flac) | Тип рипа: tracks
Разрядность: 24bit / 96kHz | Количество каналов: 2.0
-Треклист
Sergei Rachmaninoff (1873-1943)
Morceaux de fantaisie, Op. 3
01.No. 2: Prélude in C sharp minor - Lento (3:51)
10 Préludes Op. 23
02. No. 5 in G minor - Alla marcia (3:52)
03. No. 6 in E flat major - Andante (3:12)
04. No. 7 in C minor - Allegro (2:54)
13 Préludes Op. 32
05. No. 5 in G major - Moderato (3:07)
06. No. 10 in B minor - Lento (4:41)
07. No. 12 in G sharp minor - Allegro (2:43)
Etude-Tableau Op. 33
08. No. 6 in E flat minor - Non allegro (1:48)
Etude-Tableau Op. 39
09. No. 1 in C minor - Allegro agitato (3:36)
10. No. 5 in E flat minor - Appassionato (5:04)
11. No. 6 in A minor - Allegro (3:03)
Variations on Theme of Corelli, Op. 42
12. Theme Andante (0:57)
13. Var. 1 Poco piu mosso (0:39)
14. Var. 2 L'istesso tempo (0:33)
15. Var. 3 Tempo di Menuetto (0:39)
16. Var. 4 Andante (1:00)
17. Var. 5 Allegro (ma non tanto) (0:22)
18. Var. 6 L'istesso tempo (0:25)
19. Var. 7 Vivace (0:27)
20. Var. 8 Adagio misterioso (0:58)
21. Var. 9 Un poco piu mosso (0:57)
22. Var. 10 Allegro scherzando (0:39)
23. Var. 11 Allegro vivace (0:25)
24. Var. 12 L'istesso tempo (0:35)
25. Var. 13 Agitato (0:33)
26. Intermezzo (1:19)
27. Var.14 Andante (come prima) (0:59)
28. Var.15 L'istesso tempo (1:18)
29. Var.16 Allegro vivace (0:31)
30. Var.17 Meno mosso (1:05)
31. Var.18 Allegro con brio (0:37)
32. Var.19 Piu mosso. Agitato (0:33)
33. Var.20 Piu mosso (0:59)
34. Coda Andante (1:32)
Arno Babadjanian (1921-1983)
35. Prelude (1:47)
36. Melody (2:10)
37. Elegy (3:31)
38. Vagharshapat and Dance (2:13)

О релизе


Thoughts of home dominate much of the music Raffi Besalyan performs here. Rachmaninoff’s "B-Minor Prelude" was inspired by The Return, a painting by Arnold Böcklin, and although it was written before his emigration the work was a constant companion in his exile, a favorite for his own recitals and a reminder of his years in Russia. Similarly, the folk-inspired piano music of Arno Babajanian recalls a distant homeland. Based in Moscow for much of his adult life, Babajanian looked back to his native Armenia in music that mixed the folk idioms of his people with the virtuosic pianism of the Russian school. And now Besalyan, an Armenian pianist based in the United States, brings their music together in a program infused with warm memories, evocations of far off places, and reminders of earlier times.
Both Rachmaninoff and Chopin can be heard as influences in the music of Arno Babajanian. His studies in Moscow from 1938 exposed the Armenian composer to a wide range of styles, and the greater political freedom of the Khrushchev period when he began his professional career in the 1950s allowed him to explore many of these ideas in his works. The "Piano Trio in F# Minor", written in 1952, established his credentials as a composer of concert music, but he was also well-known for his cinema work, and particularly for the title song he wrote for the film Song of the First Love released in 1958. The four works presented here demonstrate how Babajanian was able to incorporate aspects of Armenian musical identity into the Russian piano idioms he had become acquainted with through his studies in Moscow. The line of inheritance from Chopin via Rachmaninoff is evident in the “Prelude”. The slow movements of Rachmaninoff’s concertos are reflected in the “Melody” that follows. “Elegy” was written towards the end of Babajanian’s life in 1978, composed in memory of fellow Armenian composer, Aram Khachaturian. The final work in the program, “Vagharshapat Dance,” is an early composition dating from 1947. It is one of Babjanian’s most popular works, skillfully infusing distinctively Armenian colors with an approach to piano figuration inherited directly from Rachmaninoff.

ОтчётыДинамический диапазон

foobar2000 1.3.8 / Dynamic Range Meter 1.1.1
log date: 2015-08-15 22:06:55
--------------------------------------------------------------------------------
Analyzed: Raffi Besalyan / The Return
--------------------------------------------------------------------------------
DR Peak RMS Duration Track
--------------------------------------------------------------------------------
DR12 -0.23 dB -17.32 dB 3:51 01-Préludes Op. 3, No. 2 in C sharp minor - Lento
DR10 -0.23 dB -13.89 dB 3:52 02-Préludes Op. 23, No. 5 in G minor - Alla marcia
DR13 -3.98 dB -22.55 dB 3:12 03-Préludes Op. 23, No. 6 in E flat major - Andante
DR11 -0.23 dB -15.50 dB 2:54 04-Préludes Op. 23, No. 7 in C minor - Allegro
DR12 -7.77 dB -24.23 dB 3:07 05-Préludes Op. 32, No. 5 in G major - Moderato
DR12 -0.23 dB -17.81 dB 4:41 06-Préludes Op. 32, No. 10 in B minor - Lento
DR13 -0.23 dB -18.34 dB 2:43 07-Préludes Op. 32, No. 12 in G sharp minor - Allegro
DR13 -0.23 dB -17.73 dB 1:48 08-Etude-Tableau Op. 33, No. 6 in E flat minor - Non allegro
DR11 -0.23 dB -14.90 dB 3:36 09-Etude-Tableau Op. 39, No. 1 in C minor - Allegro agitato
DR11 -0.23 dB -14.94 dB 5:04 10-Etude-Tableau Op. 39, No. 5 in E flat minor - Appassionato
DR12 -0.23 dB -16.51 dB 3:03 11-Etude-Tableau Op. 39, No. 6 in A minor - Allegro
DR13 -11.72 dB -30.21 dB 0:57 12-Variations on Theme of Corelli, Op. 42 - Theme Andante
DR10 -7.55 dB -22.18 dB 0:39 13-Variations on Theme of Corelli, Op. 42 - Var. 1 Poco piu mosso
DR11 -6.60 dB -20.98 dB 0:33 14-Variations on Theme of Corelli, Op. 42 - Var. 2 L'istesso tempo
DR11 -2.30 dB -20.59 dB 0:39 15-Variations on Theme of Corelli, Op. 42 - Var. 3 Tempo di Menuetto
DR13 -2.92 dB -22.17 dB 1:00 16-Variations on Theme of Corelli, Op. 42 - Var. 4 Andante
DR10 -0.23 dB -14.02 dB 0:22 17-Variations on Theme of Corelli, Op. 42 - Var. 5 Allegro (ma non tanto)
DR10 -0.65 dB -18.10 dB 0:25 18-Variations on Theme of Corelli, Op. 42 - Var. 6 L'istesso tempo
DR11 -0.23 dB -13.35 dB 0:27 19-Variations on Theme of Corelli, Op. 42 - Var. 7 Vivace
DR13 -6.66 dB -26.94 dB 0:58 20-Variations on Theme of Corelli, Op. 42 - Var. 8 Adagio misterioso
DR11 -6.75 dB -21.71 dB 0:57 21-Variations on Theme of Corelli, Op. 42 - Var. 9 Un poco piu mosso
DR11 -1.41 dB -18.24 dB 0:39 22-Variations on Theme of Corelli, Op. 42 - Var. 10 Allegro scherzando
DR11 -0.23 dB -13.53 dB 0:25 23-Variations on Theme of Corelli, Op. 42 - Var. 11 Allegro vivace
DR10 -0.90 dB -16.40 dB 0:35 24-Variations on Theme of Corelli, Op. 42 - Var. 12 L'istesso tempo
DR12 -0.38 dB -17.41 dB 0:33 25-Variations on Theme of Corelli, Op. 42 - Var. 13 Agitato
DR12 -3.55 dB -21.03 dB 1:19 26-Variations on Theme of Corelli, Op. 42 - Intermezzo
DR12 -5.54 dB -23.82 dB 0:59 27-Variations on Theme of Corelli, Op. 42 - Var.14 Andante (come prima)
DR12 -8.46 dB -25.03 dB 1:18 28-Variations on Theme of Corelli, Op. 42 - Var.15 L'istesso tempo
DR12 -0.23 dB -14.81 dB 0:31 29-Variations on Theme of Corelli, Op. 42 - Var.16 Allegro vivace
DR12 -4.55 dB -23.34 dB 1:05 30-Variations on Theme of Corelli, Op. 42 - Var.17 Meno mosso
DR11 -0.23 dB -12.77 dB 0:37 31-Variations on Theme of Corelli, Op. 42 - Var.18 Allegro con brio
DR10 -0.23 dB -13.77 dB 0:33 32-Variations on Theme of Corelli, Op. 42 - Var.19 Piu mosso. Agitato
DR10 -0.23 dB -12.66 dB 0:59 33-Variations on Theme of Corelli, Op. 42 - Var.20 Piu mosso
DR13 -6.07 dB -25.95 dB 1:32 34-Variations on Theme of Corelli, Op. 42 - Coda Andante
DR12 -2.86 dB -22.87 dB 1:47 35-Prelude
DR12 -2.06 dB -22.79 dB 2:10 36-Melody
DR14 -0.47 dB -20.31 dB 3:31 37-Elegy
DR12 -0.23 dB -17.02 dB 2:13 38-Vagharshapat and Dance
--------------------------------------------------------------------------------
Number of tracks: 38
Official DR value: DR12
Samplerate: 96000 Hz
Channels: 2
Bits per sample: 24
Bitrate: 2052 kbps
Codec: FLAC
================================================================================

Скриншот спектра частот

Доп. информация

При скачивании, если необходимо, переименуйте папку, в которой будет находиться альбомБольшая просьба к скачавшим поддерживать раздачу! Помогайте другим, ведь вам тоже может понадобиться помощь!Не забываем говорить "Спасибо"!Комментарии приветствуются!
[teatrix.ru].t22006.torrent 
Торрент: Зарегистрирован [ 2016-03-20 12:47 ] · 7D2088562951F34390BE8037C2F608D5C0797350

Скачать .torrent

Скачать

23 KB

Статус: проверено
Скачан: 0 раз
Размер: 985 MB
terms.php



Быстрый ответ

Имя:

      
Для отправки сообщений необходимо включить JavaScript
Показать сообщения:    

Текущее время: 10-Дек 13:52

Часовой пояс: UTC + 3


Вы можете начинать темы
Вы можете отвечать на сообщения
Вы не можете редактировать свои сообщения
Вы не можете удалять свои сообщения
Вы не можете голосовать в опросах
Вы не можете прикреплять файлы к сообщениям
Вы можете скачивать файлы