Два дня, одна ночь / Deux jours, une nuit (Жан-Пьер Дарденн / Jean-Pierre Dardenne, Люк Дарденн / Luc Dardenne) [2014, Бельгия, Италия, Франция, драма, BDRip] MVO


 

[Цитировать]

Два дня, одна ночь
Deux jours, une nuit
- Страна: Бельгия, Италия, Франция
Жанр: драма
Год выпуска: 2014
Продолжительность: 01:35:09
Перевод: Профессиональный (многоголосый закадровый)
Cубтитры: нет-Режиссер: Жан-Пьер Дарденн / Jean-Pierre Dardenne, Люк Дарденн / Luc Dardenne-В ролях: Марион Котийяр, Фабрицио Ронджоне, Пили Груан, Саймон Кодри, Катрин Сале, Батисте Сорнен, Ален Элуа, Мириам Акеддиу, Фабьен Шаша, Тимур Магомедгаджиев-Описание: Драматическая кинокартина «Два дня, одна ночь» рассказывает историю одной женщины по имени Сандра. Женщина имеет прекрасного, заботливого мужа и любимую работу. Но, однажды, придя на работу, Сандра узнает, что на коллективном собрании служащих ее решили уволить. А денежные средства, которые выплачивались Сандре в качестве заработной платы, можно использовать для выплаты премий остальным работникам. Подруга Сандры, Жюльет, решает помочь и уговаривает руководителя провести повторное голосование. Теперь же, у Сандры есть два дня и одна ночь, чтобы навестить коллег и переубедить их в своем решении, предоставив ей возможность остаться на работе.-Сэмпл-IMDB: 7,4 (23,830 votes)
Кинопоиск: 6,7 (5291 votes)-Качество видео: BDRip (исходник BDRemux/Kinozal/tolyaba)
Формат видео: AVI
Видео: 720x384 (16:9), 23.976 fps, XviD, 1855 kbps, 0.280 bit/pixel
Аудио: 48 kHz, AC3 Dolby Digital, 2/0 (L, R) ch, ~192.00 kbps avg русский

MI

General
Complete name : D:\Films\Dardenne\Deux.jours.une.nuit.2014.BDRip.avi
Format : AVI
Format/Info : Audio Video Interleave
File size : 1.37 GiB
Duration : 1h 35mn
Overall bit rate : 2 057 Kbps
Movie name : Dva.dnya.Odna.noch.2014.P.HDRip.ELEKTRI4KA
Director : ELEKTRI4KA
Writing application : VirtualDubMod 1.5.10.2 (build 2540/release)
Original source form/Name : Movie
Copyright : uniongang.tv
Video
ID : 0
Format : MPEG-4 Visual
Format profile : Advanced Simple@L5
Format settings, BVOP : Yes
Format settings, QPel : No
Format settings, GMC : No warppoints
Format settings, Matrix : Default (MPEG)
Codec ID : XVID
Codec ID/Hint : XviD
Duration : 1h 35mn
Bit rate : 1 856 Kbps
Width : 720 pixels
Height : 384 pixels
Display aspect ratio : 1.85:1
Frame rate : 23.976 fps
Color space : YUV
Chroma subsampling : 4:2:0
Bit depth : 8 bits
Scan type : Progressive
Compression mode : Lossy
Bits/(Pixel*Frame) : 0.280
Stream size : 1.23 GiB (90%)
Writing library : XviD 1.2.1 (UTC 2008-12-04)
Audio
ID : 1
Format : AC-3
Format/Info : Audio Coding 3
Mode extension : CM (complete main)
Format settings, Endianness : Big
Codec ID : 2000
Duration : 1h 35mn
Bit rate mode : Constant
Bit rate : 192 Kbps
Channel(s) : 2 channels
Channel positions : Front: L R
Sampling rate : 48.0 KHz
Bit depth : 16 bits
Compression mode : Lossy
Stream size : 131 MiB (9%)
Alignment : Split accross interleaves
Interleave, duration : 42 ms (1.00 video frame)
Interleave, preload duration : 500 ms



Показать сообщения:    

Текущее время: 05-Дек 11:32

Часовой пояс: UTC + 3


Вы не можете начинать темы
Вы не можете отвечать на сообщения
Вы не можете редактировать свои сообщения
Вы не можете удалять свои сообщения
Вы не можете голосовать в опросах
Вы не можете прикреплять файлы к сообщениям
Вы не можете скачивать файлы