(Opera) Bizet - Don Procopio (Lovano, Peyron, Rey, Basquin, Renaux - Choeurs et Orchestre Radio Lyrique de Paris, Bigot) - 2005, APE (image+.cue) lossless


 

[Цитировать]

Georges Bizet - Don Procopio
Жанр: Opera
Страна-производитель диска: Germany
Год издания диска: 2005
Издатель (лейбл): Cantus Classics
Номер по каталогу: 5.00692
Дата записи: 1948
Аудиокодек: APE
Тип рипа: image+.cue
Битрейт аудио: lossless
Продолжительность: 34'25+41'21
Источник: собственный рип
Наличие сканов в содержимом раздачи: да
Треклист:
Треклист:

CD1 ACTE I

01 - Introduction
02 - Air : En vain l’on croit nous désunir
03 - Quel bruit ! Quel bruit !
04 - D’avance le projet me tente
05 - Je vois Don Procopio
06 - Quand on veut conclure
07 - Vraiment elle est si belle
08 - Je connais d’autres biens

CD2 ACTE II

01 - Entracte
02 - Dans la nuit, ma bien-aimée
03 - Fâcheux renseignement
04 - Ah ! voyez si je suis bonne
05 - Qu’on s’éloigne, en silence !
06 – Non ! non ! Il faut rester et vous taire
07 - Pour moi l’aurore se lève
08 - Bonne nouvelle, amis
09 - cavatine de Bettina
Исполнители:
Don Procopio
Opera-Bouffe, sur un livret de Paul Collin et Paul Bérel.
Musique de Georges Bizet
Don Procopio............ Lucien Lovano
Don Odoardo.............Joseph Peyron
Don Ernesto.................. Gaston Rey
Don Andronico..... Charles Clavensy
Pasquino................... André Basquin
Donna Bettina.......... Nadine Renaux
Donna Eufemia........... Lina Dachary
Choeurs et Orchestre Radio Lyrique de Paris
Eugène Bigot

Лог создания рипа

CD1

Exact Audio Copy V1.0 beta 3 from 29. August 2011
EAC extraction logfile from 28. July 2014, 15:55
Bizet / Don Procopio, Bigot CD1
Used drive : TS8XDVDSTRANSCEND Adapter: 1 ID: 0
Read mode : Secure
Utilize accurate stream : Yes
Defeat audio cache : Yes
Make use of C2 pointers : No
Read offset correction : 6
Overread into Lead-In and Lead-Out : No
Fill up missing offset samples with silence : Yes
Delete leading and trailing silent blocks : No
Null samples used in CRC calculations : Yes
Used interface : Native Win32 interface for Win NT & 2000
Used output format : Monkey's Audio Lossless Encoder
Selected bitrate : High Lossless Compression
Quality : High
Add ID3 tag : No
Command line compressor : C:\Program Files (x86)\Exact Audio Copy\MAC\MAC.exe
TOC of the extracted CD
Track | Start | Length | Start sector | End sector
---------------------------------------------------------
1 | 0:00.00 | 8:15.50 | 0 | 37174
2 | 8:15.50 | 2:53.17 | 37175 | 50166
3 | 11:08.67 | 2:11.16 | 50167 | 60007
4 | 13:20.08 | 2:30.24 | 60008 | 71281
5 | 15:50.32 | 0:59.57 | 71282 | 75763
6 | 16:50.14 | 2:00.48 | 75764 | 84811
7 | 18:50.62 | 4:37.31 | 84812 | 105617
8 | 23:28.18 | 10:57.05 | 105618 | 154897
Range status and errors
Selected range
Filename D:\EAC\Bizet - Don Procopio, Bigot CD1.wav
Peak level 91.6 %
Extraction speed 1.8 X
Range quality 100.0 %
Test CRC BA7378BE
Copy CRC BA7378BE
Copy OK
No errors occurred
AccurateRip summary
Track 1 accurately ripped (confidence 1) [27F10AAE] (AR v1)
Track 2 accurately ripped (confidence 1) [DA3EBE34] (AR v1)
Track 3 accurately ripped (confidence 1) [35838F22] (AR v1)
Track 4 accurately ripped (confidence 1) [7519CAC6] (AR v1)
Track 5 accurately ripped (confidence 1) [9102ED00] (AR v1)
Track 6 accurately ripped (confidence 1) [4F168700] (AR v1)
Track 7 accurately ripped (confidence 1) [143E13FA] (AR v1)
Track 8 accurately ripped (confidence 1) [E8BC2E93] (AR v1)
All tracks accurately ripped
End of status report
---- CUETools DB Plugin V2.1.3
[CTDB TOCID: lgQ0rTZ6C5NxERrtjCpOzWzPwKk-] disk not present in database, Submit result: unrecognized or virtual drive
==== Log checksum BC3FF9865BBE40CE770337C004D4783EC45AF352EFC280034FBF5758CBC57966 ====

CD2

Exact Audio Copy V1.0 beta 3 from 29. August 2011
EAC extraction logfile from 28. July 2014, 15:55
Bizet / Don Procopio, Bigot CD2
Used drive : TSSTcorpCDDVDW SE-208AB Adapter: 1 ID: 1
Read mode : Secure
Utilize accurate stream : Yes
Defeat audio cache : Yes
Make use of C2 pointers : No
Read offset correction : 6
Overread into Lead-In and Lead-Out : No
Fill up missing offset samples with silence : Yes
Delete leading and trailing silent blocks : No
Null samples used in CRC calculations : Yes
Used interface : Native Win32 interface for Win NT & 2000
Used output format : Monkey's Audio Lossless Encoder
Selected bitrate : High Lossless Compression
Quality : High
Add ID3 tag : No
Command line compressor : C:\Program Files (x86)\Exact Audio Copy\MAC\MAC.exe
TOC of the extracted CD
Track | Start | Length | Start sector | End sector
---------------------------------------------------------
1 | 0:00.00 | 5:20.14 | 0 | 24013
2 | 5:20.14 | 5:19.21 | 24014 | 47959
3 | 10:39.35 | 2:58.72 | 47960 | 61381
4 | 13:38.32 | 9:24.52 | 61382 | 103733
5 | 23:03.09 | 2:04.39 | 103734 | 113072
6 | 25:07.48 | 8:10.16 | 113073 | 149838
7 | 33:17.64 | 4:03.65 | 149839 | 168128
8 | 37:21.54 | 2:27.30 | 168129 | 179183
9 | 39:49.09 | 1:32.38 | 179184 | 186121
Range status and errors
Selected range
Filename D:\EAC\Bizet - Don Procopio, Bigot CD2.wav
Peak level 91.6 %
Extraction speed 1.9 X
Range quality 100.0 %
Test CRC 89C36F94
Copy CRC 89C36F94
Copy OK
No errors occurred
AccurateRip summary
Track 1 accurately ripped (confidence 1) [75240399] (AR v1)
Track 2 accurately ripped (confidence 1) [72AF0358] (AR v1)
Track 3 accurately ripped (confidence 1) [DF31944E] (AR v1)
Track 4 accurately ripped (confidence 1) [AFC6C879] (AR v1)
Track 5 accurately ripped (confidence 1) [EFB0F801] (AR v1)
Track 6 accurately ripped (confidence 1) [4F366D5A] (AR v1)
Track 7 accurately ripped (confidence 1) [3E62B6AC] (AR v1)
Track 8 accurately ripped (confidence 1) [2CA7BB1A] (AR v1)
Track 9 accurately ripped (confidence 1) [8BB323E8] (AR v1)
All tracks accurately ripped
End of status report
---- CUETools DB Plugin V2.1.3
[CTDB TOCID: igbpQHLpODuJU1EyoroKi_pfyAQ-] disk not present in database, Submit result: igbpQHLpODuJU1EyoroKi_pfyAQ- has been uploaded
==== Log checksum FFB864AB603DCFE783050DF0625E150589FDCA59A663D5102DB5FA8627D5B489 ====

Содержание индексной карты (.CUE)

CD1

REM GENRE Opera
REM DATE 1948
REM DISCID 4E081108
REM COMMENT "ExactAudioCopy v1.0b3"
PERFORMER "Bizet"
TITLE "Don Procopio, Bigot CD1"
FILE "Bizet - Don Procopio, Bigot CD1.ape" WAVE
TRACK 01 AUDIO
TITLE "Introduction"
PERFORMER "Bizet"
ISRC 000000000000
INDEX 01 00:00:00
TRACK 02 AUDIO
TITLE "En vain lón croit nous desunir"
PERFORMER "Bizet"
ISRC 000000000000
INDEX 01 08:15:50
TRACK 03 AUDIO
TITLE "Quiel bruit! Quiel bruit!"
PERFORMER "Bizet"
ISRC 000000000000
INDEX 01 11:08:67
TRACK 04 AUDIO
TITLE "Dávance le projet me tente"
PERFORMER "Bizet"
ISRC 000000000000
INDEX 01 13:20:08
TRACK 05 AUDIO
TITLE "Je vois Don Procopio"
PERFORMER "Bizet"
ISRC 000000000000
INDEX 01 15:50:32
TRACK 06 AUDIO
TITLE "Quand on veut conclure"
PERFORMER "Bizet"
ISRC 000000000000
INDEX 01 16:50:14
TRACK 07 AUDIO
TITLE "Vraiment elle est si belle"
PERFORMER "Bizet"
ISRC 000000000000
INDEX 01 18:50:62
TRACK 08 AUDIO
TITLE "Je connais d'autres biens"
PERFORMER "Bizet"
ISRC 000000000000
INDEX 01 23:28:18

CD2

REM GENRE Opera
REM DATE 1948
REM DISCID 7409B109
REM COMMENT "ExactAudioCopy v1.0b3"
PERFORMER "Bizet"
TITLE "Don Procopio, Bigot CD2"
FILE "Bizet - Don Procopio, Bigot CD2.ape" WAVE
TRACK 01 AUDIO
TITLE "Entr'acte"
PERFORMER "Bizet"
ISRC 000000000000
INDEX 01 00:00:00
TRACK 02 AUDIO
TITLE "Dans la nuit, ma bien-aimee"
PERFORMER "Bizet"
ISRC 000000000000
INDEX 01 05:20:14
TRACK 03 AUDIO
TITLE "Facheux renseignement"
PERFORMER "Bizet"
ISRC 000000000000
INDEX 01 10:39:35
TRACK 04 AUDIO
TITLE "Ah! voyez si je suis bonne"
PERFORMER "Bizet"
ISRC 000000000000
INDEX 01 13:38:32
TRACK 05 AUDIO
TITLE "Qu'on s'elaigne, en silence"
PERFORMER "Bizet"
ISRC 000000000000
INDEX 01 23:03:09
TRACK 06 AUDIO
TITLE "Non! Non! Il faut rester et vous taire"
PERFORMER "Bizet"
ISRC 000000000000
INDEX 01 25:07:48
TRACK 07 AUDIO
TITLE "Pour moi l'aurore se leve"
PERFORMER "Bizet"
ISRC 000000000000
INDEX 01 33:17:64
TRACK 08 AUDIO
TITLE "Bonne nouvelle, amis!"
PERFORMER "Bizet"
ISRC 000000000000
INDEX 01 37:21:54
TRACK 09 AUDIO
TITLE "Cavatine de Bettina"
PERFORMER "Bizet"
ISRC 000000000000
INDEX 01 39:49:09
Доп. информация:
Performance history
There are three printed scores of Don Procopio, a vocal score published in 1905 before the premiere, a full score and a second vocal score, all of which are misleading by failing to distinguish genuine Bizet from fake (entr’acte and recitatives). The second and third scores contain two airs for Don Procopio adapted from Bizet’s songs; additional instruments were added to the scoring. The autograph score of Don Procopio was discovered in the papers left by Daniel Auber at his death in 1871 and it was acquired from the Auber family by the Paris Conservatoire in 1894.
The first production, in the revised edition by Charles Malherbe, was at the Salle Garnier in Monte Carlo, Monaco on 10 March 1906, in a double-bill with Pagliacci. There were performances in Barcelona in 1907 and Rome in 1908. The original version was performed at the Théatre Municipal in Strasbourg on 6 February 1958.
A recording in Russian, conducted by Vladimir Yesipov, was issued by Melodiya in 1962. The opera has been broadcast (in Italian) by the BBC, and in 1975 by French Radio.
Synopsis
The plot is almost identical to Don Pasquale by Donizetti. Don Andronico, an old miser, wants to marry his niece Bettina to another miser. Don Procopio, because he is worried that a young man will spend all her money. Bettina is however in love with Colonel Odoardo. Assisted by her aunt Eusebia and brother Ernesto they plan to thwart the old men. Procopio is terrified that Bettina appears to be a spendthrift and grasping and tries to get out of the marriage. When she insists he abandons the contract and flees, and Andronico consents to the union of the young lovers.
Music
The music is a brilliant, youthful work, free of the influence of Bizet’s teacher Charles Gounod; it is a vital and sparkling imitation of Don Pasquale. The familiar idiom is infused with original touches of harmony, orchestration and melodic turn. The ensembles are particularly successful in using all the stock devices of opera buffa: voices in thirds, staccato chord accompanying and repetition of words. Ernesto’s "Non v’e signor" is an exact parallel of Malatesta's "Bella siccome un angelo" – in both, the baritone describes his sister's charms to the old man, in D flat.



Показать сообщения:    

Текущее время: 04-Дек 02:54

Часовой пояс: UTC + 3


Вы не можете начинать темы
Вы не можете отвечать на сообщения
Вы не можете редактировать свои сообщения
Вы не можете удалять свои сообщения
Вы не можете голосовать в опросах
Вы не можете прикреплять файлы к сообщениям
Вы не можете скачивать файлы