(Baroque Vocal) Mozart - Concert Arias III (Marcel Reymans - European Chamber Orchestra, Wilhelm Keitel) - 2005, APE (image+.cue) lossless


 

[Цитировать]

Wolfgang Amadeus Mozart - Concert Arias III
Жанр: Baroque Vocal
Страна-производитель диска: EU
Год издания диска: 2005
Издатель (лейбл): Brilliant
Номер по каталогу: 99731/3
Дата записи: 2002
Аудиокодек: APE
Тип рипа: image+.cue
Битрейт аудио: lossless
Продолжительность: 47'11
Источник: собственный рип
Наличие сканов в содержимом раздачи: да
Треклист:
1. Va, dal furor portata, KV 21
2. Or che il dover / Tali e cotanti sono, KV 36
3. Si mostra la sorte, KV 209
4. Con ossequio, con rispetto, KV 210
5. Clarice cara mia sposa, KV 256
6. Se al labbro mio non credi / Il cor dolente, KV 295
7. Per pietà, non ricercate, KV 420
8. Misoro! o sogno! / Aura, che intorno, KV 431
Исполнители:
Marcel Reymans, tenor
European Chamber Orchestra
Wilhelm Keitel, conductor

Лог создания рипа

Exact Audio Copy V1.0 beta 3 from 29. August 2011
EAC extraction logfile from 22. October 2013, 23:05
Mozart / Concert Arias III, Keitel 2002
Used drive : TSSTcorpCDDVDW SE-208AB Adapter: 1 ID: 0
Read mode : Secure
Utilize accurate stream : Yes
Defeat audio cache : Yes
Make use of C2 pointers : No
Read offset correction : 6
Overread into Lead-In and Lead-Out : No
Fill up missing offset samples with silence : Yes
Delete leading and trailing silent blocks : No
Null samples used in CRC calculations : Yes
Used interface : Native Win32 interface for Win NT & 2000
Used output format : Monkey's Audio Lossless Encoder
Selected bitrate : High Lossless Compression
Quality : High
Add ID3 tag : Yes
Command line compressor : K:\Program Files (x86)\Exact Audio Copy\Monkeys Audio\Monkey's Audio\MAC.exe
Additional command line options : -6 -V -T "ARTIST=%artist%" -T "TITLE=%title%" -T "ALBUM=%albumtitle%" -T "DATE=%year%" -T "TRACKNUMBER=%tracknr%" -T "GENRE=%genre%" -T "COMMENT=%comment%" -T "BAND=%albuminterpret%" -T "ALBUMARTIST=%albuminterpret%" -T "COMPOSER=%composer%" %haslyrics%--tag-from-file=LYRICS="%lyricsfile%"%haslyrics% -T "DISCNUMBER=%cdnumber%" -T "TOTALDISCS=%totalcds%" -T "TOTALTRACKS=%numtracks%" %hascover%--picture="%coverfile%"%hascover% %source% -o %dest%
TOC of the extracted CD
Track | Start | Length | Start sector | End sector
---------------------------------------------------------
1 | 0:00.00 | 5:58.01 | 0 | 26850
2 | 5:58.01 | 8:43.00 | 26851 | 66075
3 | 14:41.01 | 2:41.51 | 66076 | 78201
4 | 17:22.52 | 2:56.42 | 78202 | 91443
5 | 20:19.19 | 1:45.58 | 91444 | 99376
6 | 22:05.02 | 10:00.62 | 99377 | 144438
7 | 32:05.64 | 5:42.51 | 144439 | 170139
8 | 37:48.40 | 9:22.45 | 170140 | 212334
Range status and errors
Selected range
Filename I:\Foobar-EAC\Mozart - Concert Arias III, Keitel 2002.wav
Peak level 99.2 %
Extraction speed 4.2 X
Range quality 100.0 %
Test CRC CB1D9D53
Copy CRC CB1D9D53
Copy OK
No errors occurred
AccurateRip summary
Track 1 accurately ripped (confidence 11) [E67F0D53] (AR v2)
Track 2 accurately ripped (confidence 11) [67C2F70A] (AR v2)
Track 3 accurately ripped (confidence 11) [FEA40859] (AR v2)
Track 4 accurately ripped (confidence 11) [D6D79B7C] (AR v2)
Track 5 accurately ripped (confidence 11) [85EA4BF0] (AR v2)
Track 6 accurately ripped (confidence 11) [BBF833E0] (AR v2)
Track 7 accurately ripped (confidence 11) [55DB3780] (AR v2)
Track 8 accurately ripped (confidence 11) [AC58D6B7] (AR v2)
All tracks accurately ripped
End of status report
---- CUETools DB Plugin V2.1.3
[CTDB TOCID: jIXxriaJ7lT8Or_iUJkSUI1cUPw-] found, Submit result: jIXxriaJ7lT8Or_iUJkSUI1cUPw- has been confirmed
[151f99e3] (77/78) Accurately ripped
[88fb04b4] (01/78) No match
==== Log checksum DBAEA850338B2C0B6A2929AC388D5E2F4246FD3304F9BA05058D49552C4DD902 ====

Содержание индексной карты (.CUE)

REM GENRE Klassik
REM DATE 2002
REM DISCID 580B0F08
REM COMMENT "ExactAudioCopy v1.0b3"
PERFORMER "Mozart"
TITLE "Concert Arias III, Keitel 2002"
FILE "Mozart - Concert Arias III, Keitel 2002.ape" WAVE
TRACK 01 AUDIO
TITLE "Va, dal furor portata, KV 21"
PERFORMER "Mozart"
FLAGS DCP
INDEX 01 00:00:00
TRACK 02 AUDIO
TITLE "Or che il dover / Tali e cotanti sono, KV 36"
PERFORMER "Mozart"
FLAGS DCP
INDEX 01 05:58:01
TRACK 03 AUDIO
TITLE "Si mostra la sorte, KV 209"
PERFORMER "Mozart"
FLAGS DCP
INDEX 01 14:41:01
TRACK 04 AUDIO
TITLE "Con ossequio, con rispetto, KV 210"
PERFORMER "Mozart"
FLAGS DCP
INDEX 01 17:22:52
TRACK 05 AUDIO
TITLE "Clarice cara mia sposa, KV 256"
PERFORMER "Mozart"
FLAGS DCP
INDEX 01 20:19:19
TRACK 06 AUDIO
TITLE "Se al labbro mio non credi / Il cor dolente, KV 295"
PERFORMER "Mozart"
FLAGS DCP
INDEX 01 22:05:02
TRACK 07 AUDIO
TITLE "Per pietà, non ricercate, KV 420"
PERFORMER "Mozart"
FLAGS DCP
INDEX 01 32:05:64
TRACK 08 AUDIO
TITLE "Misoro! o sogno! / Aura, che intorno, KV 431"
PERFORMER "Mozart"
FLAGS DCP
INDEX 01 37:48:40



Показать сообщения:    

Текущее время: 08-Дек 07:09

Часовой пояс: UTC + 3


Вы не можете начинать темы
Вы не можете отвечать на сообщения
Вы не можете редактировать свои сообщения
Вы не можете удалять свои сообщения
Вы не можете голосовать в опросах
Вы не можете прикреплять файлы к сообщениям
Вы не можете скачивать файлы