Верди - Сицилийская вечерня / Verdi - Les Vepres siciliennes (I Vespri siciliani) (Volle, Hymel, Haroutounian, Schrott) Антонио Паппано / Antonio Pappano (Stefan Herheim) [2013, Opera, HDRip-AVC 720p] Sub [Русские • Lisok][Eng, Fre, Ger, Ita, Esp.]


 

[Цитировать]

-Гранд-опера – в Гранд-Опера театре
ДЖУЗЕППЕ Фортунино Франческо ВЕРДИ
10 октября (October 10,) 1813 — 13 января (January 27,) 1901
СИЦИЛИЙСКАЯ »« ВЕЧЕРНЯ
оригинальная французская редакция (1855)
Либретто Эжена Скриба и Шарля Дюверье по мотивам итальянской героики
-- ГОД ЗАПИСИ 2013
РЕЖИССЁРСтефан ХЕРХАЙМ Stefan Herheim
АВТОРСКИЙ ПЕРЕВОД ПО ФРАНЦ. СУБТИТРАМ © Lisok
Язык: Французский
Субтитры/Subtitles: РУССКИЕ,
English, French, German, Italian, Spanish
Продолжительность: 178 min.
ГЮИ де МОНФОР Михель ВОЛЛЕ Michael Volle
АНРИ Брайан ХАЙМЕЛ Bryan Hymel
ГЕРЦОГИНЯ ЕЛЕНА Лиана АРУТЮНЯН Lianna Haroutounian
ЖАН ПРОЧИДА Эрвин ШРОТТ Erwin Schrott

ХОР и ОРКЕСТР театра КОВЕНТ-ГАРДЕН
ДИРИЖЁР Антонио ПАППАНО Antonio Pappano

Качество видео: HDRip-AVC
♫ Sample ♫
Исходник: BDRip-AVC 1080 by Vilboa
Формат/Контейнер: MKV
Аудио кодек: DTS
Видео поток: H.264, 1280x720, 3940 kbps, 29,970 fps.
Аудио поток: Français, 1509 kbps, 48,0 KHz, 24 bit, 6 ch
Навигация по главам: Есть

Скриншоты



Хореограф: Андре де ЙОНГ André de JongСценография: Филипп ФЮРХОФЕР Philipp Fürhofer
Костюмы: Гезине ФЁЛЬМ Gesine Völlm

MediaInfo

-

x264.log


avs [info]: 1280x720p 1:1 @ 10000000/333667 fps (cfr)
x264 [info]: using SAR=1/1
x264 [info]: using cpu capabilities: MMX2 SSE2Fast SSEMisalign LZCNT
x264 [info]: profile High, level 4.1
x264 [info]: frame I:1743 Avg QP:14.85 size: 86926
x264 [info]: frame P:77910 Avg QP:15.92 size: 34195
x264 [info]: frame B:241969 Avg QP:17.94 size: 10208
x264 [info]: consecutive B-frames: 0.9% 1.5% 13.0% 49.4% 18.0% 16.4% 0.5% 0.0% 0.1% 0.1%
x264 [info]: mb I I16..4: 7.3% 72.3% 20.4%
x264 [info]: mb P I16..4: 2.8% 18.6% 2.8% P16..4: 26.9% 31.6% 10.8% 0.0% 0.0% skip: 6.5%
x264 [info]: mb B I16..4: 0.9% 2.8% 0.3% B16..8: 32.3% 19.0% 3.2% direct: 6.5% skip:35.0% L0:38.7% L1:47.8% BI:13.5%
x264 [info]: 8x8 transform intra:74.5% inter:60.3%
x264 [info]: coded y,uvDC,uvAC intra: 55.5% 54.8% 32.4% inter: 17.2% 18.8% 1.3%
x264 [info]: i16 v,h,dc,p: 61% 17% 13% 8%
x264 [info]: i8 v,h,dc,ddl,ddr,vr,hd,vl,hu: 13% 7% 37% 6% 7% 8% 6% 8% 8%
x264 [info]: i4 v,h,dc,ddl,ddr,vr,hd,vl,hu: 21% 9% 30% 6% 8% 8% 6% 7% 6%
x264 [info]: i8c dc,h,v,p: 33% 41% 18% 7%
x264 [info]: Weighted P-Frames: Y:3.5% UV:1.4%
x264 [info]: ref P L0: 54.0% 7.8% 24.5% 11.7% 1.9% 0.1%
x264 [info]: ref B L0: 86.0% 10.7% 3.3%
x264 [info]: ref B L1: 93.7% 6.3%
x264 [info]: kb/s:3940.36
-
General
Unique ID : 192969384059684923194826241994979135015 (0x912C8D2FD406A10B9B7E4073A9E5CE27)
Complete name : Les Vepres siciliennes (ROH) 2013.mkv
Format : Matroska
Format version : Version 4 / Version 2
File size : 6.83 GiB
Duration : 2h 58mn
Overall bit rate : 5 464 Kbps
Encoded date : UTC 2015-08-14 15:42:31
Writing application : mkvmerge v8.1.0 ('Psychedelic Postcard') 32bit
Writing library : libebml v1.3.1 + libmatroska v1.4.2
Video
ID : 1
Format : AVC
Format/Info : Advanced Video Codec
Format profile : High@L4.1
Format settings, CABAC : Yes
Format settings, ReFrames : 4 frames
Codec ID : V_MPEG4/ISO/AVC
Duration : 2h 58mn
Bit rate : 3 846 Kbps
Width : 1 280 pixels
Height : 720 pixels
Display aspect ratio : 16:9
Frame rate mode : Constant
Frame rate : 29.970 fps
Color space : YUV
Chroma subsampling : 4:2:0
Bit depth : 8 bits
Scan type : Progressive
Bits/(Pixel*Frame) : 0.139
Stream size : 4.80 GiB (70%)
Writing library : x264 core 130 r2273 b3065e6
Encoding settings : cabac=1 / ref=4 / deblock=1:-3:-3 / analyse=0x3:0x113 / me=umh / subme=11 / psy=1 / psy_rd=1.05:0.15 / mixed_ref=1 / me_range=32 / chroma_me=1 / trellis=2 / 8x8dct=1 / cqm=0 / deadzone=21,11 / fast_pskip=1 / chroma_qp_offset=-3 / threads=3 / lookahead_threads=1 / sliced_threads=0 / nr=0 / decimate=1 / interlaced=0 / bluray_compat=0 / constrained_intra=0 / bframes=9 / b_pyramid=2 / b_adapt=2 / b_bias=0 / direct=1 / weightb=1 / open_gop=0 / weightp=2 / keyint=250 / keyint_min=25 / scenecut=40 / intra_refresh=0 / rc=crf / mbtree=0 / crf=18.6 / qcomp=0.65 / qpmin=0 / qpmax=69 / qpstep=4 / ip_ratio=1.40 / pb_ratio=1.30 / aq=1:0.90
Language : English
Default : Yes
Forced : No
Audio
ID : 2
Format : DTS
Format/Info : Digital Theater Systems
Mode : 16
Format settings, Endianness : Big
Codec ID : A_DTS
Duration : 2h 58mn
Bit rate mode : Constant
Bit rate : 1 509 Kbps
Channel(s) : 6 channels
Channel positions : Front: L C R, Side: L R, LFE
Sampling rate : 48.0 KHz
Bit depth : 24 bits
Compression mode : Lossy
Stream size : 1.89 GiB (28%)
Language : French
Default : Yes
Forced : No
Text #1
ID : 3
Format : ASS
Codec ID : S_TEXT/ASS
Codec ID/Info : Advanced Sub Station Alpha
Compression mode : Lossless
Language : Russian
Default : Yes
Forced : Yes
Text #2
ID : 4
Format : VobSub
Muxing mode : zlib
Codec ID : S_VOBSUB
Codec ID/Info : Picture based subtitle format used on DVDs
Language : English
Default : No
Forced : No
Text #3
ID : 5
Format : VobSub
Muxing mode : zlib
Codec ID : S_VOBSUB
Codec ID/Info : Picture based subtitle format used on DVDs
Language : French
Default : No
Forced : No
Text #4
ID : 6
Format : VobSub
Muxing mode : zlib
Codec ID : S_VOBSUB
Codec ID/Info : Picture based subtitle format used on DVDs
Language : German
Default : No
Forced : No
Text #5
ID : 7
Format : VobSub
Muxing mode : zlib
Codec ID : S_VOBSUB
Codec ID/Info : Picture based subtitle format used on DVDs
Language : Spanish
Default : No
Forced : No
Text #6
ID : 8
Format : VobSub
Muxing mode : zlib
Codec ID : S_VOBSUB
Codec ID/Info : Picture based subtitle format used on DVDs
Language : Italian
Default : No
Forced : No
Menu
00:01:03.763 : en:Overture
00:09:57.163 : en:Act 1
00:37:21.472 : en:Act 2
01:11:57.046 : en:Act 3
01:44:38.071 : en:Act 4
02:24:45.977 : en:Act 5



Показать сообщения:    

Текущее время: 05-Дек 07:23

Часовой пояс: UTC + 3


Вы не можете начинать темы
Вы не можете отвечать на сообщения
Вы не можете редактировать свои сообщения
Вы не можете удалять свои сообщения
Вы не можете голосовать в опросах
Вы не можете прикреплять файлы к сообщениям
Вы не можете скачивать файлы