(Operetta) Johann Strauss - Die Fledermaus [highlights] (Janowitz, Holm, Kmentt, Kunz, Waechter - Wiener Staatsopernchor & Philharmoniker, Bohm) - 2000, APE (image+.cue) lossless


 

[Цитировать]

Johann Strauss - Die Fledermaus [highlights]
Жанр: Operetta
Страна-производитель диска: Germany
Год издания диска: 2000
Издатель (лейбл): Eloquence [Decca]
Номер по каталогу: 458 648-2
Дата записи: 1972
Аудиокодек: APE
Тип рипа: image+.cue
Битрейт аудио: lossless
Продолжительность: 75'48
Источник: собственный рип
Наличие сканов в содержимом раздачи: да
Треклист:
1. Taubchen, Das Entflattert Ist... Ach, Ich Darf Nicht Hin Zu Dir
2. Nein, Mit Solchen Advokaten
3. Komm Mit Mir Zum Souper
4. So Muss Allein Ich Bleiben... O Je O Je
5. Trinke, Liebchen, Trinke Schnell
6. Ein Souper Heut' Uns Winkt
7. Ich Lade Gern Mir Gaste Ein
8. Ach, Meine Herr'n Und Damen... Mein Herr Marquis
9. Dieser Anstand, So Manierlich
10. Klange Der Heimat
11. Im Feuerstrom Der Reben... Bruderlein, Bruderlein Und Schwesterlein
12. Genug Damit, Genug!
13. Speil Ich Die Unschuld Vom Lande
14. Ich Steh Voll Zagen
15. O Fledermaus, O Fledermaus (Finale)
Исполнители:
Johann Strauß - Die Fledermaus
Rosalinda - Gundula Janowitz
Adele - Renate Holm
Alfred - Waldemar Kmentt
Frank - Erich Kunz
Gabriel - Eberhard Wächter
Wiener Staatsopernchor
Wiener Philharmoniker
Karl Böhm (dirigent)

Лог создания рипа

Exact Audio Copy V1.0 beta 6 from 9. April 2015
EAC extraction logfile from 20. June 2015, 17:11
Johann Strauss / Die Fledermaus, Böhm (highlights)
Used drive : TSSTcorpCDDVDW SE-208AB Adapter: 1 ID: 2
Read mode : Secure
Utilize accurate stream : Yes
Defeat audio cache : Yes
Make use of C2 pointers : No
Read offset correction : 6
Overread into Lead-In and Lead-Out : No
Fill up missing offset samples with silence : Yes
Delete leading and trailing silent blocks : No
Null samples used in CRC calculations : Yes
Used interface : Native Win32 interface for Win NT & 2000
Used output format : Monkey's Audio Lossless Encoder
Selected bitrate : High Lossless Compression
Quality : High
Add ID3 tag : Yes
Command line compressor : C:\Program Files (x86)\Exact Audio Copy\MAC\MAC.exe
TOC of the extracted CD
Track | Start | Length | Start sector | End sector
---------------------------------------------------------
1 | 0:00.00 | 4:34.47 | 0 | 20596
2 | 4:34.47 | 4:23.14 | 20597 | 40335
3 | 8:57.61 | 3:43.64 | 40336 | 57124
4 | 12:41.50 | 4:18.04 | 57125 | 76478
5 | 16:59.54 | 11:27.61 | 76479 | 128064
6 | 28:27.40 | 1:32.14 | 128065 | 134978
7 | 29:59.54 | 3:10.02 | 134979 | 149230
8 | 33:09.56 | 4:39.67 | 149231 | 170222
9 | 37:49.48 | 4:50.03 | 170223 | 191975
10 | 42:39.51 | 4:34.71 | 191976 | 212596
11 | 47:14.47 | 8:23.09 | 212597 | 250330
12 | 55:37.56 | 4:48.71 | 250331 | 272001
13 | 60:26.52 | 4:47.00 | 272002 | 293526
14 | 65:13.52 | 7:42.72 | 293527 | 328248
15 | 72:56.49 | 2:52.01 | 328249 | 341149
Range status and errors
Selected range
Filename D:\EAC\Johann Strauss - Die Fledermaus, Böhm (highlights).wav
Peak level 99.9 %
Extraction speed 5.2 X
Range quality 100.0 %
Test CRC DB5445E2
Copy CRC DB5445E2
Copy OK
No errors occurred
AccurateRip summary
Track 1 accurately ripped (confidence 2) [84ABF4B0] (AR v1)
Track 2 accurately ripped (confidence 2) [8BC21D73] (AR v1)
Track 3 accurately ripped (confidence 2) [EECF2FF3] (AR v1)
Track 4 accurately ripped (confidence 2) [692A3B8F] (AR v1)
Track 5 accurately ripped (confidence 2) [A6B2D5D2] (AR v1)
Track 6 accurately ripped (confidence 2) [70C91DED] (AR v1)
Track 7 accurately ripped (confidence 2) [21B7764E] (AR v1)
Track 8 accurately ripped (confidence 2) [064AF0EA] (AR v1)
Track 9 accurately ripped (confidence 2) [9F9217EF] (AR v1)
Track 10 accurately ripped (confidence 2) [B9A665F0] (AR v1)
Track 11 accurately ripped (confidence 2) [9343F836] (AR v1)
Track 12 accurately ripped (confidence 2) [516FE6E8] (AR v1)
Track 13 accurately ripped (confidence 2) [384623EF] (AR v1)
Track 14 accurately ripped (confidence 2) [8AD18643] (AR v1)
Track 15 accurately ripped (confidence 2) [03AB7E92] (AR v1)
All tracks accurately ripped
End of status report
---- CUETools DB Plugin V2.1.6
[CTDB TOCID: FtRmdTD.hdQIjmAYAkkCMYisEYQ-] found
Submit result: FtRmdTD.hdQIjmAYAkkCMYisEYQ- has been confirmed
Track | CTDB Status
1 | (5/5) Accurately ripped
2 | (5/5) Accurately ripped
3 | (5/5) Accurately ripped
4 | (5/5) Accurately ripped
5 | (5/5) Accurately ripped
6 | (5/5) Accurately ripped
7 | (5/5) Accurately ripped
8 | (5/5) Accurately ripped
9 | (5/5) Accurately ripped
10 | (5/5) Accurately ripped
11 | (5/5) Accurately ripped
12 | (5/5) Accurately ripped
13 | (5/5) Accurately ripped
14 | (5/5) Accurately ripped
15 | (5/5) Accurately ripped
==== Log checksum F07C6BD62F717D8CB5C7EF1D0A8E0F7D51A2536CF56A9BB32161BCBC9CD4C350 ====

Содержание индексной карты (.CUE)

REM GENRE Operetta
REM DATE 1972
REM DISCID DF11C40F
REM COMMENT "ExactAudioCopy v1.0b6"
CATALOG 0028945864822
PERFORMER "Johann Strauss"
TITLE "Die Fledermaus, Böhm (highlights)"
FILE "Johann Strauss - Die Fledermaus, Böhm (highlights).ape" WAVE
TRACK 01 AUDIO
TITLE "Täubchen, das entflattert ist ... Ach ich darf nicht hin zu dir"
PERFORMER "Wiener Philharmoniker, Karl Böhm"
INDEX 01 00:00:00
TRACK 02 AUDIO
TITLE "Nein, mit solchen Advokaten"
PERFORMER "Wiener Philharmoniker, Karl Böhm"
INDEX 01 04:34:47
TRACK 03 AUDIO
TITLE "Komm mit mir zum Souper"
PERFORMER "Wiener Philharmoniker, Karl Böhm"
INDEX 01 08:57:61
TRACK 04 AUDIO
TITLE "So muß allein ich bleiben... O je, o je"
PERFORMER "Wiener Philharmoniker, Karl Böhm"
INDEX 01 12:41:50
TRACK 05 AUDIO
TITLE "Trinke, Liebchen, trinke schnell"
PERFORMER "Wiener Philharmoniker, Karl Böhm"
INDEX 01 16:59:54
TRACK 06 AUDIO
TITLE "Ein Souper heut' uns winkt"
PERFORMER "Wiener Philharmoniker, Karl Böhm"
INDEX 01 28:27:40
TRACK 07 AUDIO
TITLE "Ich lade gern mir Gäste ein"
PERFORMER "Wiener Philharmoniker, Karl Böhm"
INDEX 01 29:59:54
TRACK 08 AUDIO
TITLE "Ach, meine Herr'n und Damen... Mein Herr Marquis"
PERFORMER "Wiener Philharmoniker, Karl Böhm"
INDEX 01 33:09:56
TRACK 09 AUDIO
TITLE "Dieser Anstand, so manierlich"
PERFORMER "Wiener Philharmoniker, Karl Böhm"
INDEX 01 37:49:48
TRACK 10 AUDIO
TITLE "Klänge der Heimat"
PERFORMER "Wiener Philharmoniker, Karl Böhm"
INDEX 01 42:39:51
TRACK 11 AUDIO
TITLE "Im Feuerstrom der Reben... Brüderlein, Brüderlein und Schwesterlein"
PERFORMER "Wiener Philharmoniker, Karl Böhm"
INDEX 01 47:14:47
TRACK 12 AUDIO
TITLE "Genug damit, genug!"
PERFORMER "Wiener Philharmoniker, Karl Böhm"
INDEX 01 55:37:56
TRACK 13 AUDIO
TITLE "Speil ich die Unschuld vom Lande"
PERFORMER "Wiener Philharmoniker, Karl Böhm"
INDEX 01 60:26:52
TRACK 14 AUDIO
TITLE "Ich steh voll Zagen"
PERFORMER "Wiener Philharmoniker, Karl Böhm"
INDEX 01 65:13:52
TRACK 15 AUDIO
TITLE "O Fledermaus, o Fledermaus"
PERFORMER "Wiener Philharmoniker, Karl Böhm"
INDEX 01 72:56:49



Показать сообщения:    

Текущее время: 09-Дек 06:57

Часовой пояс: UTC + 3


Вы не можете начинать темы
Вы не можете отвечать на сообщения
Вы не можете редактировать свои сообщения
Вы не можете удалять свои сообщения
Вы не можете голосовать в опросах
Вы не можете прикреплять файлы к сообщениям
Вы не можете скачивать файлы