Мать Клары / Klaras Mutter / Klara's Mother (Танкред Дорст / Tankred Dorst) [1978, ФРГ, драма, DVDRip] + Sub Rus + Original Ger


Статистика раздачи [Обновить пиров]
Размер:  1.37 GB   |    Зарегистрирован:  8 месяцев 19 дней   |    Скачан:  0 раз

Полного источника не было: Никогда

 
   
 
 
 

[Цитировать]

Мать Клары / Klaras Mutter / Klara's Mother
Страна: ФРГ
Жанр: драма
Год выпуска: 1978
Продолжительность: 01:43:36
Перевод: субтитры
Cубтитры: русский
Оригинальная аудиодорожка: немецкий
Режиссер: Танкред Дорст / Tankred Dorst
В ролях: Катарина Тюшен/Katharina Tüschen, Элизабет Шварц/Elisabeth Schwarz, Мариус Мюллер-Вестернхаген/Marius Müller-Westernhagen, Хорст Лаубе/Horst Laube, Дитер Кирхлехнер/Dieter Kirchlechner
Описание: Германия, 30-е годы, небольшая деревня. В ней особняком живут Клара, которая работает учительницей, и её мать, которая даёт детям уроки вязания. Особняком – потому что они «травоеды», сушат груши и грибы, спят на полу, голосуют за коммунистов. Дом у них большой – с намёткой на создание не зависящей от государства коммуны, но живут в нём только Клара и её мать. Однажды у них находит пристанище Херберт Купка, поляк, который ищет работу в Германии. А страна уже идёт к выборам, на которых победит НСДАП – к выборам, которые изменят Европу и мир.
Танкред Дорст поставил фильм о медленной размеренной жизни, которая невидимо разрушается. Всё как всегда, но не как всегда. Оператор Дитрих Ломан, снимая строго и удивительно вещественно, совершенно конгениален этой спокойной жизни, которая воспламеняется из-за мелких событий – слова, которое говорит всё о человеке, поступка, который разрушает доверие, чувства, которое после покажется некрасивым. Снятый для телевидения фильм может показаться невыразительным, но зато такой показ трагедии, которая разворачивается на глазах зрителя, является наиболее честным.
Доп. информация: Файл взят с Карагарги, за что благодарим EceAyhan.
Сэмпл: http://multi-up.com/1062937
Качество видео: DVDRip
Формат видео: AVI
Видео: XviD build 46 at 1653 kbps, 0.22 bit/pixel, 640x480 (1.33:1) at 25 fps
Аудио: AC3 Dolby Digital at 224 kbps, 2/0 (L,R) ch, 48 kHz

Субтитры

Формат субтитров: softsub (SRT)
Фрагмент субтитров:
1
00:00:23,360 --> 00:00:27,672
Пусть нас всего лишь двое,
Kлара и я.
2
00:00:29,120 --> 00:00:31,395
Когда-нибудь нас будет больше.
3
00:00:32,800 --> 00:00:36,076
Мы будем жить в сообществе,
вот что я имею в виду.
4
00:00:36,760 --> 00:00:41,470
20, 100 человек, нас будет много.
5
00:00:42,360 --> 00:00:45,432
И не нужны тогда ни законы,
ни государство.
6
00:00:47,640 --> 00:00:49,995
Травоеды!
7
00:00:51,440 --> 00:00:55,194
Можете звать нас травоедами,
нам всё равно.
8
00:00:56,640 --> 00:00:58,517
- Привет, Анна!
- Здравствуйте!
9
00:01:01,400 --> 00:01:04,358
Освобождение тела и духа -
10
00:01:04,680 --> 00:01:07,797
я теперь буду говорить об этом,
сколько захочу.
11
00:01:09,200 --> 00:01:13,079
Здравствуйте, госпожа Фальк.
12
00:01:13,920 --> 00:01:16,480
Итак, дети: урок вязания!
13
00:01:17,920 --> 00:01:20,878
Надо поговорить с Мари Грюммер
по поводу Херты.
14
00:01:21,360 --> 00:01:23,157
О ней надо позаботиться.
15
00:01:23,680 --> 00:01:27,468
Все ею только помыкают.
16
00:01:28,160 --> 00:01:32,438
Работает по дому с утра до ночи,
а ведь ей только 14.
17
00:01:33,840 --> 00:01:38,391
Рыжая и вся в веснушках -
значит, дьявола подружка...
18
00:01:48,600 --> 00:01:52,115
Человек должен стать свободным,
вот что важно.
19
00:01:53,040 --> 00:01:56,112
Должен выбраться из своих бед.
20
00:02:09,640 --> 00:02:14,919
МАТЬ КЛАРЫ

MediaInfo

Формат : AVI
Формат/Информация : Audio Video Interleave
Размер файла : 1,37 Гбайт
Продолжительность : 1 ч. 43 м.
Общий поток : 1887 Кбит/сек
Программа кодирования : VirtualDubMod 1.5.10.2 (build 2540/release)
Библиотека кодирования : VirtualDubMod build 2540/release
Видео
Идентификатор : 0
Формат : MPEG-4 Visual
Профиль формата : Advanced Simple@L5
Параметр BVOP формата : 2
Параметр QPel формата : Нет
Параметр GMC формата : Без точки перехода
Параметр матрицы формата : Default (MPEG)
Идентификатор кодека : XVID
Идентификатор кодека/Подсказка : XviD
Продолжительность : 1 ч. 43 м.
Битрейт : 1653 Кбит/сек
Ширина : 640 пикс.
Высота : 480 пикс.
Соотношение сторон : 4:3
Частота кадров : 25,000 кадр/сек
Цветовое пространство : YUV
Подвыборка цветности : 4:2:0
Битовая глубина : 8 бит
Тип развёртки : Прогрессивная
Метод сжатия : С потерями
Бит/(Пиксели*Кадры) : 0.215
Размер потока : 1,20 Гбайт (88%)
Библиотека кодирования : XviD 1.1.2 (UTC 2006-11-01)
Аудио
Идентификатор : 1
Формат : AC-3
Формат/Информация : Audio Coding 3
Расширение режима : CM (complete main)
Идентификатор кодека : 2000
Продолжительность : 1 ч. 43 м.
Вид битрейта : Постоянный
Битрейт : 224 Кбит/сек
Канал(ы) : 2 канала(ов)
Расположение каналов : Front: L R
Частота : 48,0 КГц
Битовая глубина : 16 бит
Метод сжатия : С потерями
Размер потока : 166 Мбайт (12%)
Выравнивание : Разделение по промежуткам
Продолжительность промежутка : 40 мс. (1,00 видеокадр)
Время предзагрузки промежутка : 500 ms

Скриншот c названием фильма

Скриншоты




[teatrix.ru].t22024.torrent 
Торрент: Зарегистрирован [ 2016-03-20 12:46 ] · D2CB4DC61B2184871ADE4D2C5F747C012B7F5BAB

Скачать .torrent

Скачать

28 KB

Статус: проверено
Скачан: 0 раз
Размер: 1.37 GB
terms.php



Быстрый ответ

Имя:

      
Для отправки сообщений необходимо включить JavaScript
Показать сообщения:    

Текущее время: 08-Дек 23:12

Часовой пояс: UTC + 3


Вы можете начинать темы
Вы можете отвечать на сообщения
Вы не можете редактировать свои сообщения
Вы не можете удалять свои сообщения
Вы не можете голосовать в опросах
Вы не можете прикреплять файлы к сообщениям
Вы можете скачивать файлы