(A Cappella) Sigismondo d'India: Libro Primo de Madrigali, 1606 (La Venexiana, dir. Claudio Cavina) - 2001, WavPack (image+.cue) lossless


 

[Цитировать]

Sigismondo d'India
Libro Primo de Madrigali, 1606
La Venexiana
Жанр: A Cappella
Страна-производитель диска: Spain
Год издания диска: 2001
Издатель (лейбл): Glossa Music, S. L.
Номер по каталогу: GCD 920908
Дата записи: December 2000
Аудиокодек: WavPack
Тип рипа: image+.cue
Битрейт аудио: lossless
Продолжительность: 49:11
Источник: собственный рип
Наличие сканов в содержимом раздачи: да

Треклист

01. Intenerite voi, lagrime mie / O ch'el mio vago scoglio (seconda parte) [3:03]
02. Al partir del mio Sole [2:53]
03. Parlo, miser, o taccio? [3:27]
04. Cruda Amarilli [3:25]
05. Ha di Serpe il velen [2:43]
06. Felice chi vi mira / Ben che hebbe amica Stella (seconda parte) [2:59]
07. Fiume ch'a l'onde tue / Ahi, tu mel nieghi (seconda parte) [5:32]
08. Quasi tra rose e gigli / Che mentre ardito vola (seconda parte) [3:17]
09. Cor mio, deh, non languire [3:06]
10. Ma con chi parl'ahi lassa [2:04]
11. Che non t'ami, cor mio? [2:57]
12. Pur venisti, cor mio [2:16]
13. Interdette speranze e van desio / E se per me non val (seconda parte) / Usin le Stelle e'l ciel (terza parte) [7:14]
14. Filli, mirando il Cielo / Io mi distill'in pianto (seconda parte) [4:15]

Исполнители

La Venexiana:
Valentina Coladonato: soprano
Nadia Ragni: soprano
Lucia Sciannimanico: mezzosoprano
Claudio Cavina: countertenor & direction
Giuseppe Maletto: tenor
Sandro Naglia: tenor
Daniele Carnovich: bass

log EAC

Exact Audio Copy V0.99 prebeta 5 from 4. May 2009
Отчёт EAC об извлечении, выполненном 2. августа 2015, 14:51
La Venexiana / Sigismondo d'India: Libro Primo de Madrigali
Дисковод: PIONEER DVD-RW DVR-219L Adapter: 1 ID: 1
Режим чтения : Достоверность
Использование точного потока : Да
Отключение кэша аудио : Да
Использование указателей C2 : Нет
Коррекция смещения при чтении : 6
Способность читать области Lead-in и Lead-out : Нет
Заполнение пропущенных сэмплов тишиной : Да
Удаление блоков с тишиной в начале и конце : Нет
При вычислениях CRC использовались нулевые сэмплы : Да
Интерфейс : Встроенный Win32-интерфейс для Win NT/2000
Выходной формат : Внутренние WAV-операции
Формат сэмплов : 44.100 Гц; 16 бит; стерео
TOC извлечённого CD
Трек | Старт | Длительность | Начальный сектор | Конечный сектор
---------------------------------------------------------------------
1 | 0:00.00 | 3:03.06 | 0 | 13730
2 | 3:03.06 | 2:52.49 | 13731 | 26679
3 | 5:55.55 | 3:26.70 | 26680 | 42199
4 | 9:22.50 | 3:25.08 | 42200 | 57582
5 | 12:47.58 | 2:43.12 | 57583 | 69819
6 | 15:30.70 | 2:59.32 | 69820 | 83276
7 | 18:30.27 | 5:32.08 | 83277 | 108184
8 | 24:02.35 | 3:16.48 | 108185 | 122932
9 | 27:19.08 | 3:06.12 | 122933 | 136894
10 | 30:25.20 | 2:03.62 | 136895 | 146181
11 | 32:29.07 | 2:57.23 | 146182 | 159479
12 | 35:26.30 | 2:16.00 | 159480 | 169679
13 | 37:42.30 | 7:14.37 | 169680 | 202266
14 | 44:56.67 | 4:14.45 | 202267 | 221361
Характеристики диапазона извлечения и сообщения об ошибках
Выбранный диапазон
Имя файла C:\Documents and Settings\Agni\Мои документы\EAC\La Venexiana - Sigismondo d'India - Libro Primo de Madrigali.wav
Пиковый уровень 95.5 %
Качество диапазона 100.0 %
CRC теста D3DCD2E3
CRC копии D3DCD2E3
Копирование... OK
Ошибок не произошло
AccurateRip: сводка
Трек 1 точное извлечение (доверие 3) [C61AFD4A]
Трек 2 точное извлечение (доверие 3) [22101B61]
Трек 3 точное извлечение (доверие 3) [B253C120]
Трек 4 точное извлечение (доверие 3) [D6232D76]
Трек 5 точное извлечение (доверие 3) [FF48FA53]
Трек 6 точное извлечение (доверие 3) [AC4116D2]
Трек 7 точное извлечение (доверие 3) [EEDDC37D]
Трек 8 точное извлечение (доверие 3) [CBBB35A7]
Трек 9 точное извлечение (доверие 3) [D2513E20]
Трек 10 точное извлечение (доверие 3) [E776EF7E]
Трек 11 точное извлечение (доверие 3) [2F42CFE9]
Трек 12 точное извлечение (доверие 3) [9EE353B2]
Трек 13 точное извлечение (доверие 3) [A82E52A5]
Трек 14 точное извлечение (доверие 3) [9228C059]
Все треки извлечены точно
Конец отчёта

Доп. информация

Recorded at Chiesa della B.V.Maria del Monte Carmelo al Colletto, Roletto, Italy, in December 2000
Engineered by DAVIDE FICCO
Edited and mastered by BERTRAM KORNACHER
Produced by SIGRID LEE & LA VENEXIANA
Executive producer: CARLOS CÉSTER



Показать сообщения:    

Текущее время: 11-Дек 13:01

Часовой пояс: UTC + 3


Вы не можете начинать темы
Вы не можете отвечать на сообщения
Вы не можете редактировать свои сообщения
Вы не можете удалять свои сообщения
Вы не можете голосовать в опросах
Вы не можете прикреплять файлы к сообщениям
Вы не можете скачивать файлы