(Classical, Choral) Bach - Das Kantatenwerk / Sacred Cantatas (Nikolaus Harnoncourt, Gustav Leonhardt) - 1994, FLAC (image+.cue), lossless


Статистика раздачи [Обновить пиров]
Размер:  8.5 GB   |    Зарегистрирован:  8 месяцев 13 дней   |    Скачан:  0 раз

Полного источника не было: Никогда

 
   
 
 
 

[Цитировать]

Johann Sebastian Bach - Das Kantatenwerk Vol. 1:Bach - Das Kantatenwerk, Vol. 1 - Harnoncourt, Leonhardt
Жанр: Classical, Choral
Страна-производитель диска: Germany
Год издания диска: 1994
Издатель (лейбл): Teldec Classics
Номер по каталогу: 4509-91755-2
Дата записи: 1971-1972
Аудиокодек: FLAC
Тип рипа: image+.cue
Битрейт аудио: lossless
Продолжительность: 386"05
Источник: собственный рип
Наличие сканов в содержимом раздачи: да

CD1:Треклист:

Wie Schön leuchtet der Morgenstern BWV 1 / BC A173
Festo annuntiationis Mariae / At the Feast of Annunciation
Text: Anon. (2 - 5); Philipp Nicolai, 1599 (1 & 6)
01. I. (Coro): «Wie Schön leuchtet der Morgenstern»
Corni, Oboi da caccia, Violini, Viola, Basso continuo
02. II. Recitativo (Tenore): «Du wahrer Gottes und Marien Sohn»
Basso continuo
03. III. Aria (Soprano): «Erfüellet, ihr himmlischen göttlichen Flammen»
Oboe da caccia, Basso Continuo
04. IV. Recitativo (Basso): «Ein irdscher Glanz, ein leiblich Licht»
Basso continuo
05. V. Aria (Tenore): «Unser Mund und Ton der Saiten»
Violini, Viola, Basso continuo
06. VI. Choral (Coro): «Wie bin ich doch so herzlich froh»
Corni, Oboi da caccia, Violini, Viola, Basso continuo
Ach Gott, vom Himmel sieh darein BWV 2 / BC A98
Dominica 2 post Trinitatis / At ahe 2nd Sunday after Trinity
Text: Anon. (2 - 5); Martin Luther, 1524 (1 & 6)
07. I. (Coro): «Ach Gott, vom Himmel sieh darein»
Violini, Cornetto, Oboi, Tromboni, Viola, Basso continuo
08. II. Recitativo (Tenore): «Sie lehren eitel falsche List»
Basso continuo
09. III. Aria (Alto): «Tilg, O Gott, die Lehren»
Violino, Basso continuo
10. IV. Recitativo (Basso): «Die Armen sind verstört»
Violini, Viola, Basso continuo
11. V. Aria (Tenore): «Durchs Feuer wird das Silber rein»
Oboi, Violini, Viola, Basso continuo
12. VI. Choral (Coro): «Das wollst du, Gott, bewahren rein»
Cornetto, Violini, Oboi, Tromboni, Viola, Basso continuo
Ach Gott, wie manches Herzeleid BWV 3 / BC A33
Dominica 2 post Epiphanias / At ahe 2nd Sunday after Epiphany
Text: Anon. (3 - 5); Martin Moller, 1587 (1, 2, 6)
13. I. (Coro): «Ach Gott, wie manches Herzeleid»
Oboi d'amore, Violini, Viola, Trombone, Basso Continuo
14. II. (Choral) Recitativo (Soprano, Alto, Tenore, Basso, Coro): «Wie schwerlich läßt sich Fleisch und Blut»
Basso continuo
15. III. Aria (Basso): «Empfind ich Höllenangst und Pein»
Basso continuo
16. IV. Recitativo (Tenore): «Es mag mir Leib und Geist verschmachten»
Basso continuo
17. V. Aria (Duetto: Soprano, Alto): «Wenn Sorgen auf mich dringen»
Oboi d'amore, Violini, Basso continuo
18. VI. Choral (Coro): «Erhalt mein Herz im Glauben rein»
Violini, Trombone, Oboi d'amore, Viola, Basso continuo
Total 68.27

Лог создания рипа:

Exact Audio Copy V1.0 beta 3 from 29. August 2011
Отчёт EAC об извлечении, выполненном 7. августа 2015, 10:59
Harnoncourt & Leonhardt / Bach: Das Kantatenwerk, Vol. 1 - CD1
Дисковод: Optiarc DVD RW AD-7260S Adapter: 0 ID: 1
Режим чтения : Достоверность
Использование точного потока : Да
Отключение кэша аудио : Да
Использование указателей C2 : Нет
Коррекция смещения при чтении : 48
Способность читать области Lead-in и Lead-out : Нет
Заполнение пропущенных сэмплов тишиной : Да
Удаление блоков с тишиной в начале и конце : Нет
При вычислениях CRC использовались нулевые сэмплы : Да
Интерфейс : Встроенный Win32-интерфейс для Win NT/2000
Выходной формат : Пользовательский кодировщик
Выбранный битрейт : 896 kBit/s
Качество : Высокий
Добавление ID3-тега : Нет
Утилита сжатия : C:\Program Files\FLAC Frontend\tools\flac.exe
Дополнительные параметры : -V -8 -T "Date=%year%" -T "Genre=%genre%" %source%
TOC извлечённого CD
Трек | Старт | Длительность | Начальный сектор | Конечный сектор
---------------------------------------------------------------------
1 | 0:00.00 | 9:36.07 | 0 | 43206
2 | 9:36.07 | 0:55.20 | 43207 | 47351
3 | 10:31.27 | 5:09.10 | 47352 | 70536
4 | 15:40.37 | 0:57.43 | 70537 | 74854
5 | 16:38.05 | 7:21.02 | 74855 | 107931
6 | 23:59.07 | 1:40.55 | 107932 | 115486
7 | 25:39.62 | 3:52.03 | 115487 | 132889
8 | 29:31.65 | 1:02.35 | 132890 | 137574
9 | 30:34.25 | 4:01.15 | 137575 | 155664
10 | 34:35.40 | 1:40.45 | 155665 | 163209
11 | 36:16.10 | 7:13.30 | 163210 | 195714
12 | 43:29.40 | 1:14.22 | 195715 | 201286
13 | 44:43.62 | 4:54.50 | 201287 | 223386
14 | 49:38.37 | 2:27.53 | 223387 | 234464
15 | 52:06.15 | 5:50.30 | 234465 | 260744
16 | 57:56.45 | 1:13.40 | 260745 | 266259
17 | 59:10.10 | 8:33.50 | 266260 | 304784
18 | 67:43.60 | 0:42.40 | 304785 | 307974
Характеристики диапазона извлечения и сообщения об ошибках
Выбранный диапазон
Имя файла D:\EAC\Мои раздачи\Bach - Das Kantatenwerk, Vol. 1 - Harnoncourt & Leonhardt\CD1\Harnoncourt & Leonhardt - Bach- Das Kantatenwerk, Vol. 1 - CD1.wav
Пиковый уровень 91.7 %
Скорость извлечения 4.4 X
Качество диапазона 100.0 %
CRC теста 1815D442
CRC копии 1815D442
Копирование... OK
Ошибок не произошло
AccurateRip: сводка
Трек 1 : извлечено точно (доверие 18) [64DF5D6E] (AR v2)
Трек 2 : извлечено точно (доверие 19) [E9C5234E] (AR v2)
Трек 3 : извлечено точно (доверие 19) [CD72E745] (AR v2)
Трек 4 : извлечено точно (доверие 19) [0C61F9C5] (AR v2)
Трек 5 : извлечено точно (доверие 16) [39A860DA] (AR v2)
Трек 6 : извлечено точно (доверие 20) [EBCF03C0] (AR v2)
Трек 7 : извлечено точно (доверие 19) [4C421984] (AR v2)
Трек 8 : извлечено точно (доверие 19) [AB0D8928] (AR v2)
Трек 9 : извлечено точно (доверие 19) [0083510E] (AR v2)
Трек 10 : извлечено точно (доверие 19) [1ED08408] (AR v2)
Трек 11 : извлечено точно (доверие 19) [C051EBEA] (AR v2)
Трек 12 : извлечено точно (доверие 19) [81C996D8] (AR v2)
Трек 13 : извлечено точно (доверие 19) [B5289B70] (AR v2)
Трек 14 : извлечено точно (доверие 19) [0928D345] (AR v2)
Трек 15 : извлечено точно (доверие 19) [B871069D] (AR v2)
Трек 16 : извлечено точно (доверие 19) [73C1CD1D] (AR v2)
Трек 17 : извлечено точно (доверие 19) [E433B162] (AR v2)
Трек 18 : извлечено точно (доверие 19) [8B99203C] (AR v2)
Все треки извлечены точно
Конец отчёта
==== Контрольная сумма отчёта ACAD4E25CCD7A27101C87EC4DE1C9D9F694E35526AD6F28F18FECB27EF8A9611 ====

CD2:Треклист:

Christ lag in Todes Banden BWV 4 / BC A54b
Feria 1 Paschatos / On the 1st day of Easter
Text: Martin Luther, 1524
01. I. Sinfonia
Violini, Viole, Basso continuo
02. II. [Coro] Versus I: «Christ lag in Todes Banden»
Violini, Viole, Cornetto, Tromboni, Basso continuo
03. III. [Duetto] (Soprano, Alto) Versus II: «Den Tod niemand zwingen kunnt»
Cornetto, Trombone, Basso continuo
04. IV. [Aria] (Tenore) Versus III: «Jesus Christus, Gottes Sohn»
Violini, Basso continuo
05. V. [Coro] Versus IV: «Es war win wunderlicher Krieg»
Basso continuo
06. VI. [Aria] (Basso) Versus V: «Hier ist das rechte Osterlamm»
Violini, Viole, Basso continuo
07. VII. [Duetto] (Soprano, Tenore) Versus VI: «So feiern wir das hohe Fest»
Basso continuo
08. VIII. Choral (Coro) Versus VII: «Wir essen und leben wohl»
Violini, Cornetto, Viole, Tromboni, Basso continuo
Wo soll ich fliehen hin BWV 5 / BC A145
Dominica 19 post Trinitatis / At the 19th Sunday after Trinity
Text: Anon. (2 - 6); Johann Heermann, 1630 (1 & 7)
09. I. [Coro]: «Wo Soll Ich Fliehen Hin»
Oboi, Violini, Viola, Tromba da tirarsi, Basso continuo
10. II. Recitativo (Basso): «Der Sünden Wust hat mich nicht nur befleckt»
Basso continuo
11. III. Aria (Tenore): «Ergieße dich reichlich»
Viola, Basso continuo
12. IV. Recitativo (Alto): «Mein treuer Heiland tröstet mich»
Oboe, Basso continuo
13. V. Aria (Basso): «Verstumme, Höllenheer»
Tromba, Oboi, Violini, Viola, Basso continuo
14. VI. Recitativo (Soprano): «Ich bin ja nur das kleinste Teil der Welt»
Basso continuo
15. VII. Choral (Coro): «Führ auch mein Herz und Sinn»
Violini, Oboi, Tromba da tirarsi, Viola, Basso continuo
Bleib bei uns, denn es will Abend werden BWV 6 /BC A57
Feria 2 Paschatos / On the 2nd day of Easter
Text: Lukas 24, 29 (1); Anon. (2, 4, 5); Nikolaus Hermann / Nikolaus Seinecker, 1572 (3); Martin Luther, 1542 (6)
16. I. [Coro]: «Bleib bei uns, denn es will Abend werden»
Oboi, Oboe da caccia, Violini, Viola, Basso continuo
17. II. Aria (Alto): «Hochgelobter Gottessohn»
Oboe da Caccia, Basso continuo
18. III. Choral (Soprano): «Ach bleib bei uns, Herr Jesu Christ»
Violoncello piccolo, Basso continuo
19. IV. Recitativo (Basso): «Es hat die Dunkelheit an vielen Orten»
Basso continuo
20. V. Aria (Tenore): «Jesu, laß uns auf dich sehen»
Violini, Viola, Basso continuo
21. VI. Choral (Coro): «Beweis dein Macht, Herr Jesu Christ»
Violini, Oboi, Oboe da caccia, Viola, Basso continuo
Total 62.07

Лог создания рипа:

Exact Audio Copy V1.0 beta 3 from 29. August 2011
Отчёт EAC об извлечении, выполненном 7. августа 2015, 12:28
Harnoncourt & Leonhardt / Bach: Das Kantatenwerk, Vol. 1 - CD2
Дисковод: Optiarc DVD RW AD-7260S Adapter: 0 ID: 1
Режим чтения : Достоверность
Использование точного потока : Да
Отключение кэша аудио : Да
Использование указателей C2 : Нет
Коррекция смещения при чтении : 48
Способность читать области Lead-in и Lead-out : Нет
Заполнение пропущенных сэмплов тишиной : Да
Удаление блоков с тишиной в начале и конце : Нет
При вычислениях CRC использовались нулевые сэмплы : Да
Интерфейс : Встроенный Win32-интерфейс для Win NT/2000
Выходной формат : Пользовательский кодировщик
Выбранный битрейт : 896 kBit/s
Качество : Высокий
Добавление ID3-тега : Нет
Утилита сжатия : C:\Program Files\FLAC Frontend\tools\flac.exe
Дополнительные параметры : -V -8 -T "Date=%year%" -T "Genre=%genre%" %source%
TOC извлечённого CD
Трек | Старт | Длительность | Начальный сектор | Конечный сектор
---------------------------------------------------------------------
1 | 0:00.00 | 1:06.12 | 0 | 4961
2 | 1:06.12 | 4:18.23 | 4962 | 24334
3 | 5:24.35 | 3:41.10 | 24335 | 40919
4 | 9:05.45 | 2:17.60 | 40920 | 51254
5 | 11:23.30 | 2:28.25 | 51255 | 62379
6 | 13:51.55 | 3:00.35 | 62380 | 75914
7 | 16:52.15 | 2:07.57 | 75915 | 85496
8 | 18:59.72 | 1:19.05 | 85497 | 91426
9 | 20:19.02 | 3:53.15 | 91427 | 108916
10 | 24:12.17 | 1:02.68 | 108917 | 113634
11 | 25:15.10 | 6:37.15 | 113635 | 143424
12 | 31:52.25 | 1:46.52 | 143425 | 151426
13 | 33:39.02 | 7:49.05 | 151427 | 186606
14 | 41:28.07 | 0:47.68 | 186607 | 190199
15 | 42:16.00 | 0:58.00 | 190200 | 194549
16 | 43:14.00 | 5:33.20 | 194550 | 219544
17 | 48:47.20 | 3:45.20 | 219545 | 236439
18 | 52:32.40 | 4:03.52 | 236440 | 254716
19 | 56:36.17 | 0:40.20 | 254717 | 257736
20 | 57:16.37 | 4:07.20 | 257737 | 276281
21 | 61:23.57 | 0:43.25 | 276282 | 279531
Характеристики диапазона извлечения и сообщения об ошибках
Выбранный диапазон
Имя файла D:\EAC\Мои раздачи\Bach - Das Kantatenwerk, Vol. 1 - Harnoncourt & Leonhardt\CD2\Harnoncourt & Leonhardt - Bach- Das Kantatenwerk, Vol. 1 - CD2.wav
Пиковый уровень 94.5 %
Скорость извлечения 4.3 X
Качество диапазона 100.0 %
CRC теста 9CF34AD3
CRC копии 9CF34AD3
Копирование... OK
Ошибок не произошло
AccurateRip: сводка
Трек 1 : извлечено точно (доверие 12) [0A0CB909] (AR v2)
Трек 2 : извлечено точно (доверие 12) [1D7EF870] (AR v2)
Трек 3 : извлечено точно (доверие 12) [F35969B0] (AR v2)
Трек 4 : извлечено точно (доверие 12) [DC503F06] (AR v2)
Трек 5 : извлечено точно (доверие 12) [0FE63E12] (AR v2)
Трек 6 : извлечено точно (доверие 12) [93C615DE] (AR v2)
Трек 7 : извлечено точно (доверие 12) [48BE2F7A] (AR v2)
Трек 8 : извлечено точно (доверие 12) [0BE85FF5] (AR v2)
Трек 9 : извлечено точно (доверие 12) [4CA8AA84] (AR v2)
Трек 10 : извлечено точно (доверие 12) [A50FA55A] (AR v2)
Трек 11 : извлечено точно (доверие 12) [A6E573E3] (AR v2)
Трек 12 : извлечено точно (доверие 12) [08845107] (AR v2)
Трек 13 : извлечено точно (доверие 12) [4E6A2779] (AR v2)
Трек 14 : извлечено точно (доверие 11) [B3C331DD] (AR v2)
Трек 15 : извлечено точно (доверие 12) [087B6320] (AR v2)
Трек 16 : извлечено точно (доверие 12) [39A576E2] (AR v2)
Трек 17 : извлечено точно (доверие 12) [F8050941] (AR v2)
Трек 18 : извлечено точно (доверие 12) [739C8AC0] (AR v2)
Трек 19 : извлечено точно (доверие 12) [2AD37806] (AR v2)
Трек 20 : извлечено точно (доверие 11) [E48ABF12] (AR v2)
Трек 21 : извлечено точно (доверие 12) [E204CF68] (AR v2)
Все треки извлечены точно
Конец отчёта
==== Контрольная сумма отчёта 36929DC16399995CB9B3A0DEB2A35844E7E6E3DE72C7837801F98902E5C947C3 ====

CD3:Треклист:

Christ unser Herr zum Jordan kam BWV 7 / BC A177
Festo S. Joannis Baptistae / At the Feast of John the Baptist
Text: Anon. (2 - 6); Martin Luther, 1541 (1 & 7)
01. I. [Coro]: «Christ unser Herr zum Jordan kam»
Oboi d'amore, Violini, Viola, Basso continuo
02. II. Aria (Basso): «Merkt und Hört, ihr Menschenkinder»
Basso continuo
03. III. Recitativo (Tenore): «Dies hat Gott klar mit Worten»
Basso continuo
04. IV. Aria (Tenore): «Des Vaters Stimme Ließ sich Hören»
Violini, Basso continuo
05. V. Recitativo (Basso): «Als Jesus dort nach seinen Leiden»
Violini, Viola, Basso continuo
06. VI. Aria (Alto): «Menschen, glaubt doch dieser Gnade»
Oboi d'amore, Violini, Viola, Basso continuo
07. VII. Choral (Coro): «Das Aug allein das Wasser sieht»
Oboi d'amore, Violini, Viola, Basso continuo
Liebster Gott, wenn werd ich sterben BWV 8 / BC A137a
Dominica 16 post Trinitatis / At the 16th Sunday after Trinity
Text: Anon. (2 - 5); Caspar Neumann, C. 1690(1 & 6)
08. I. [Coro]: «Liebster Gott, wenn werd ich sterben?»
Corno, Flauto traverso, Oboi d'amore, Violini, Viola, Basso continuo
09. II. Aria (Tenore): «Was willst du dich, mein Geist, entsetzen»
Oboe d'amore, Basso continuo
10. III. Recitativo (Alto): «Zwar fühlt mein schwaches Herz»
Violini, Viola, Basso continuo
11. IV. Aria (Basso): «Doch weichet, ihr tollen, vergeblichen Sorgen!»
Flauto traverso, Violini, Viola, Basso continuo
12. V. Recitativo (Soprano): «Behalte nur, o Welt, das Meine!»
Basso continuo
13. VI. Choral (Coro): «Herrscher über Tod und Leben»
Violini, Flauto traverso, Oboi d'amore, Corno, Viola, Basso continuo
Es ist das Heil uns kommen her BWV 9 / BC A107
Dominica 6 post Trinitatis / At the 6th Sunday after Trinity
Text: Anon. (2 - 6); Paul Speratus, 1524 (1 & 7)
14. I. [Coro]: «Es ist das Heil uns kommen her»
Flauto traverso, Oboe d'amore, Violini, Viole, Basso continuo
15. II. Recitativo (Basso): «Gott gab uns ein Gesetz»
Basso continuo
16. III. Aria (Tenore): «Wir waren schon zu tief gesunken»
Violino, Basso continuo
17. IV. Recitativo (Basso): «Doch mußte das Gesetz erfüllet werden»
Basso continuo
18. V. Aria (Duetto: Soprano, Alto): «Herr, du siehst statt guter Werke»
Flauto traverso, Oboe d'amore, Basso continuo
19. VI. Recitativo (Basso): «Wenn wir die Sünd aus dem Gesetz erkennen»
Basso continuo
20. VII. Choral (Coro): «Ob sichs anließ, als wollt er nicht»
Flauto traverso, Oboe d'amore, Violini, Viole, Basso continuo
Total 70.05

Лог создания рипа:

Exact Audio Copy V1.0 beta 3 from 29. August 2011
Отчёт EAC об извлечении, выполненном 7. августа 2015, 14:23
Harnoncourt & Leonhardt / Bach: Das Kantatenwerk, Vol. 1 - CD3
Дисковод: Optiarc DVD RW AD-7260S Adapter: 0 ID: 1
Режим чтения : Достоверность
Использование точного потока : Да
Отключение кэша аудио : Да
Использование указателей C2 : Нет
Коррекция смещения при чтении : 48
Способность читать области Lead-in и Lead-out : Нет
Заполнение пропущенных сэмплов тишиной : Да
Удаление блоков с тишиной в начале и конце : Нет
При вычислениях CRC использовались нулевые сэмплы : Да
Интерфейс : Встроенный Win32-интерфейс для Win NT/2000
Выходной формат : Пользовательский кодировщик
Выбранный битрейт : 896 kBit/s
Качество : Высокий
Добавление ID3-тега : Нет
Утилита сжатия : C:\Program Files\FLAC Frontend\tools\flac.exe
Дополнительные параметры : -V -8 -T "Date=%year%" -T "Genre=%genre%" %source%
TOC извлечённого CD
Трек | Старт | Длительность | Начальный сектор | Конечный сектор
---------------------------------------------------------------------
1 | 0:00.00 | 7:50.15 | 0 | 35264
2 | 7:50.15 | 5:40.32 | 35265 | 60796
3 | 13:30.47 | 1:16.30 | 60797 | 66526
4 | 14:47.02 | 4:58.20 | 66527 | 88896
5 | 19:45.22 | 1:00.43 | 88897 | 93439
6 | 20:45.65 | 4:00.02 | 93440 | 111441
7 | 24:45.67 | 1:21.05 | 111442 | 117521
8 | 26:06.72 | 5:49.73 | 117522 | 143769
9 | 31:56.70 | 4:10.35 | 143770 | 162554
10 | 36:07.30 | 1:10.55 | 162555 | 167859
11 | 37:18.10 | 5:16.55 | 167860 | 191614
12 | 42:34.65 | 1:13.12 | 191615 | 197101
13 | 43:48.02 | 1:32.05 | 197102 | 204006
14 | 45:20.07 | 4:57.05 | 204007 | 226286
15 | 50:17.12 | 1:15.15 | 226287 | 231926
16 | 51:32.27 | 7:21.38 | 231927 | 265039
17 | 58:53.65 | 1:17.12 | 265040 | 270826
18 | 60:11.02 | 7:25.08 | 270827 | 304209
19 | 67:36.10 | 1:24.07 | 304210 | 310516
20 | 69:00.17 | 1:05.05 | 310517 | 315396
Характеристики диапазона извлечения и сообщения об ошибках
Выбранный диапазон
Имя файла D:\EAC\Мои раздачи\Bach - Das Kantatenwerk, Vol. 1 - Harnoncourt & Leonhardt\CD3\Harnoncourt & Leonhardt - Bach- Das Kantatenwerk, Vol. 1 - CD3.wav
Пиковый уровень 97.0 %
Скорость извлечения 4.4 X
Качество диапазона 100.0 %
CRC теста 025EC588
CRC копии 025EC588
Копирование... OK
Ошибок не произошло
AccurateRip: сводка
Трек 1 : извлечено точно (доверие 12) [2875C046] (AR v2)
Трек 2 : извлечено точно (доверие 12) [CCA01391] (AR v2)
Трек 3 : извлечено точно (доверие 12) [19A58802] (AR v2)
Трек 4 : извлечено точно (доверие 12) [FEA7EF1F] (AR v2)
Трек 5 : извлечено точно (доверие 12) [1A760FE7] (AR v2)
Трек 6 : извлечено точно (доверие 12) [D541B073] (AR v2)
Трек 7 : извлечено точно (доверие 12) [1B771785] (AR v2)
Трек 8 : извлечено точно (доверие 12) [E0AACF5C] (AR v2)
Трек 9 : извлечено точно (доверие 12) [D3635B02] (AR v2)
Трек 10 : извлечено точно (доверие 12) [421C56C0] (AR v2)
Трек 11 : извлечено точно (доверие 12) [B3569AA8] (AR v2)
Трек 12 : извлечено точно (доверие 12) [BBD82295] (AR v2)
Трек 13 : извлечено точно (доверие 12) [D161116F] (AR v2)
Трек 14 : извлечено точно (доверие 12) [F4CD3EBC] (AR v2)
Трек 15 : извлечено точно (доверие 12) [0BA1AAEA] (AR v2)
Трек 16 : извлечено точно (доверие 12) [CF5E081B] (AR v2)
Трек 17 : извлечено точно (доверие 12) [7CAA9F93] (AR v2)
Трек 18 : извлечено точно (доверие 12) [6319CCFB] (AR v2)
Трек 19 : извлечено точно (доверие 12) [20CD4735] (AR v2)
Трек 20 : извлечено точно (доверие 12) [F97F3BA0] (AR v2)
Все треки извлечены точно
Конец отчёта
==== Контрольная сумма отчёта 06B25ADD3893B27A1A1CCBBF26865043CB60F8B243911EC280533B6395DC496C ====

CD4:Треклист:

Meine Seel erhebt den Herren BWV 10 / BC A175
Festo Visitationis Mariae / At the Feast of Visitation
Text: Anon. (2 - 4, 6); Magnificat (Lukas 1, 46 – 55) (1, 5, 7)
01. I. [Coro]: «Meine Seel erhebt den Herren»
Tromba da tirarsi, Oboi, Violini, Viole, Basso continuo
02. II. Aria (Soprano): «Herr, der du Stark und mächtig bist»
Oboi, Violini, Viole, Basso continuo
03. III. Recitativo (Tenore): «Des Höchsten Güt und Treu»
Basso Continuo
04. IV. Aria (Basso): «Gewaltige Stößt Gott vom Stuhl»
Basso continuo
05. V. Duetto (Alto, Tenore): «Er denket der Barmherzigkeit»
Oboi, Tromba da tirarsi, Basso continuo
06. VI. Recitativo (Tenore): «Was Gott den Vätern alter Zeiten»
Violini, Viole, Basso continuo
07. VII. Choral (Coro): «Lob und Preis sei Gott dem Vater»
Tromba da tirarsi, Oboi, Violini, Viole, Basso continuo
Lobet Gott in seinen Reichen BWV 11 / BC D9
Oratorium Festo Ascensionis Christi / Ascencion Day Oratorio
Text: J. Bugenhagen, Evangelien-Harmonie (Lukas 24, 50 - 52, Apostelgeschichte 1, 9 - 12, Markus 16, 19) (2, 5, 7a, 7c); Johann Rist 1641 (6); Gottfried Wilhelm Sacer 1697 (9)
08. I. [Coro]: «Lobet Gott in seinen Reichen»
Trombe, Timpani, Flauti traversi, Oboi, Violini, Viola, Basso continuo
09. II. Recitativo (Tenore): «Der Herr Jesus hub seine Hände auf»
Basso continuo
10. III. Recitativo (Basso): «Ach, Jesu, ist dein Abschied schon so nah?»
Flauti traversi, Basso continuo
11. IV. Aria (Alto): «Ach, bleibe doch, mein liebstes Leben»
Violini, Basso continuo
12. V. Recitativo (Tenore): «Und ward aufgehoben zusehends»
Basso continuo
13. VI. Choral (Coro): «Nun lieget alles unter dir»
Flauti traversi, Oboi, Violini, Oboi, Viola, Basso continuo
14. VII. Recitativo (Tenore, Basso): «Und da sie ihm nachsahen»
Basso Continuo
15. VIII. Recitativo (Alto): «Ach ja! so komme bald zurück»
Flauti traversi, Basso continuo
16. IX. Recitativo (Tenore): «Sie aber beteten ihn an»
Basso continuo
17. X. [Aria] (Soprano): «Jesu, deine Gnadenblicke»
Flauli traversi, Oboe, Violini, Viola
18. XI. Choral (Coro): «Wann soll es doch geschehen»
Trombe, Timpani, Flauti traversi, Oboi, Violini, Viola, Basso continuo
Weinen, Klagen, Sorgen, Zagen BWV 12 / BC A68
Dominica Jubilate / At the Sunday Jubilate
Text: Salomo Franck? (1, 3 - 6); Apostelgeschichte 14, 22 (2); F. Samuel Rodigast, 1674 (7/6)
19. I. Sinfonia
Oboe, Violini, Viole, Basso continuo
20. II. [Coro]: «Weinen, Klagen, Sorgen, Zagen»
Violini, Viole, Basso continuo
21. III. [Arioso] (Alto): «Wir müssen durch viel Trübsal»
Violini, Viole, Basso continuo
22. IV. Aria (Alto): «Kreuz und Krone sind verbunden»
Oboe, Basso continuo
23. V. Aria (Basso): «Ich folge Christo nach»
Violini, Basso continuo
24. VI. Aria (Tenore): «Sei getreu, alle Pein»
Tromba da tirarsi, Basso continuo
25. VII. Choral: «Was Gott tut, das ist wohlgetan»
Tromba da tirarsi, Violini, Viole, Basso continuo
Total 74.44

Лог создания рипа:

Exact Audio Copy V1.0 beta 3 from 29. August 2011
Отчёт EAC об извлечении, выполненном 7. августа 2015, 15:12
Harnoncourt & Leonhardt / Bach- Das Kantatenwerk, Vol. 1 - CD4
Дисковод: Optiarc DVD RW AD-7260S Adapter: 0 ID: 1
Режим чтения : Достоверность
Использование точного потока : Да
Отключение кэша аудио : Да
Использование указателей C2 : Нет
Коррекция смещения при чтении : 48
Способность читать области Lead-in и Lead-out : Нет
Заполнение пропущенных сэмплов тишиной : Да
Удаление блоков с тишиной в начале и конце : Нет
При вычислениях CRC использовались нулевые сэмплы : Да
Интерфейс : Встроенный Win32-интерфейс для Win NT/2000
Выходной формат : Пользовательский кодировщик
Выбранный битрейт : 896 kBit/s
Качество : Высокий
Добавление ID3-тега : Нет
Утилита сжатия : C:\Program Files\FLAC Frontend\tools\flac.exe
Дополнительные параметры : -V -8 -T "Date=%year%" -T "Genre=%genre%" %source%
TOC извлечённого CD
Трек | Старт | Длительность | Начальный сектор | Конечный сектор
---------------------------------------------------------------------
1 | 0:00.00 | 4:02.40 | 0 | 18189
2 | 4:02.40 | 7:27.60 | 18190 | 51774
3 | 11:30.25 | 1:23.47 | 51775 | 58046
4 | 12:53.72 | 3:27.55 | 58047 | 73626
5 | 16:21.52 | 2:19.70 | 73627 | 84121
6 | 18:41.47 | 2:09.53 | 84122 | 93849
7 | 20:51.25 | 1:07.50 | 93850 | 98924
8 | 21:59.00 | 5:09.07 | 98925 | 122106
9 | 27:08.07 | 0:28.38 | 122107 | 124244
10 | 27:36.45 | 1:00.00 | 124245 | 128744
11 | 28:36.45 | 6:43.35 | 128745 | 159004
12 | 35:20.05 | 0:24.52 | 159005 | 160856
13 | 35:44.57 | 1:16.40 | 160857 | 166596
14 | 37:01.22 | 1:03.48 | 166597 | 171369
15 | 38:04.70 | 0:37.52 | 171370 | 174196
16 | 38:42.47 | 0:40.68 | 174197 | 177264
17 | 39:23.40 | 6:51.12 | 177265 | 208101
18 | 46:14.52 | 4:43.55 | 208102 | 229381
19 | 50:58.32 | 2:20.70 | 229382 | 239951
20 | 53:19.27 | 6:02.05 | 239952 | 267106
21 | 59:21.32 | 0:56.45 | 267107 | 271351
22 | 60:18.02 | 6:26.65 | 271352 | 300366
23 | 66:44.67 | 2:48.15 | 300367 | 312981
24 | 69:33.07 | 4:18.05 | 312982 | 332336
25 | 73:51.12 | 0:52.45 | 332337 | 336281
Характеристики диапазона извлечения и сообщения об ошибках
Выбранный диапазон
Имя файла D:\EAC\Мои раздачи\Bach - Das Kantatenwerk, Vol. 1 - Harnoncourt & Leonhardt\CD4\Harnoncourt & Leonhardt - Bach- Das Kantatenwerk, Vol. 1 - CD4.wav
Пиковый уровень 95.0 %
Скорость извлечения 4.5 X
Качество диапазона 100.0 %
CRC теста F20BB305
CRC копии F20BB305
Копирование... OK
Ошибок не произошло
AccurateRip: сводка
Трек 1 отсутствует в базе данных
Трек 2 отсутствует в базе данных
Трек 3 отсутствует в базе данных
Трек 4 отсутствует в базе данных
Трек 5 отсутствует в базе данных
Трек 6 отсутствует в базе данных
Трек 7 отсутствует в базе данных
Трек 8 отсутствует в базе данных
Трек 9 отсутствует в базе данных
Трек 10 отсутствует в базе данных
Трек 11 отсутствует в базе данных
Трек 12 отсутствует в базе данных
Трек 13 отсутствует в базе данных
Трек 14 отсутствует в базе данных
Трек 15 отсутствует в базе данных
Трек 16 отсутствует в базе данных
Трек 17 отсутствует в базе данных
Трек 18 отсутствует в базе данных
Трек 19 отсутствует в базе данных
Трек 20 отсутствует в базе данных
Трек 21 отсутствует в базе данных
Трек 22 отсутствует в базе данных
Трек 23 отсутствует в базе данных
Трек 24 отсутствует в базе данных
Трек 25 отсутствует в базе данных
Ни одного трека нет в базе AccurateRip
Конец отчёта
==== Контрольная сумма отчёта 1AA0A84226FAB57DC0CF7B214216625FD43F8C0C1CADF78886DFE5F677B8A418 ====

CD5:Треклист:

Meine Seufzer, meine Tränen BWV 13 / BC A34
Dominica 2 post Epiphanias / At the 2nd Sunday after Epiphany
Text: Georg Christian Lehms, 1711 (1, 2, 4, 5); Johann Heermann, 1636 (3); Paul Fleming, 1641 (6)
01. I. Aria (Tenore): «Meine Seufzer, meine Tränen»
Flauti, Oboe da caccia, Basso continuo
02. II. Recitativo (Alto): «Mein Liebster Gott Laebt Mich Annoch»
Basso continuo
03. III. Choral (Alto): «Der Gott, der mir hat versprochen»
Flauti, Oboe da caccia, Violini,Viole, Basso continuo
04. IV. Recitativo (Soprano): «Mein Kummer nimmet zu»
Basso continuo
05. V. Aria (Basso): «Ächzen und erbärmlich Weinen»
Violino, Flauto, Basso continuo
06. VI. Choral (Coro): «So sei nun, Seele, deine»
Flauti, Oboe, Violini, Viole, Basso continuo
Wär Gott nicht mit uns diese Zeit BWV 14 / BC A40
Dominica 4 post Epiphanias / At the 4th Sunday after Epiphany
Text: Anon. (2 - 4); Martin Luther, 1524 (1 & 5)
07. I. [Coro]: «Wär Gott nicht mit uns diese Zeit »
Corno da caccia, Oboi, Violini, Viole, Basso continuo
08. II. Aria (Soprano): «Unsre Stärke Heißt zu schwach»
Corno da caccia, Violini, Viole, Basso continuo
09. III. Recitativo (Tenore): «Ja, Hätt es Gott nur zugegeben»
Basso continuo
10. IV. Aria (Basso): «Gott, bei deinem starken Schützen»
Oboi, Basso continuo
11. V. Choral (Coro): «Gott Lob und Dank, der nicht zugab»
Corno da caccia, Oboi, Violini, Viole, Basso continuo
Herr Gott, dich loben wir BWV 16 / BC A23
Festo Circumcisionis Christi / For the Feast of Circumcision
Text: Martin Luther, 1529 (1); Georg Christian Lehms, 1711 (2 - 5); Paul Eber, C. 1580 (6)
12. I. [Coro]: «Herr Gott, Dich Loben Wir»
Corno da caccia, Oboi, Violini, Viole, Basso continuo
13. II. Recitativo (Basso): «So stimmen wir bei dieser frohen Zeit»
Basso Continuo
14. III. [Coro &] Aria (Basso): «Laßt uns jauchzen, laßt uns freuen»
Corno da caccia, Oboi, Violini, Viole, Basso continuo
15. IV. Recitativo (Alto): «Ach treuer Hort»
Basso continuo
16. V. Aria (Tenore): «Geliebter Jesu, du allein»
Oboe da caccia, Basso continuo
17. VI. Choral (Coro): «All solch dein Güt wir preisen»
Corno da caccia, Oboi, Violini, Viole, Basso continuo
Total 59.16

Лог создания рипа:

Exact Audio Copy V1.0 beta 3 from 29. August 2011
Отчёт EAC об извлечении, выполненном 7. августа 2015, 16:25
Harnoncourt & Leonhardt / Bach - Das Kantatenwerk, Vol. 1 - CD5
Дисковод: Optiarc DVD RW AD-7260S Adapter: 0 ID: 1
Режим чтения : Достоверность
Использование точного потока : Да
Отключение кэша аудио : Да
Использование указателей C2 : Нет
Коррекция смещения при чтении : 48
Способность читать области Lead-in и Lead-out : Нет
Заполнение пропущенных сэмплов тишиной : Да
Удаление блоков с тишиной в начале и конце : Нет
При вычислениях CRC использовались нулевые сэмплы : Да
Интерфейс : Встроенный Win32-интерфейс для Win NT/2000
Выходной формат : Пользовательский кодировщик
Выбранный битрейт : 896 kBit/s
Качество : Высокий
Добавление ID3-тега : Нет
Утилита сжатия : C:\Program Files\FLAC Frontend\tools\flac.exe
Дополнительные параметры : -V -8 -T "Date=%year%" -T "Genre=%genre%" %source%
TOC извлечённого CD
Трек | Старт | Длительность | Начальный сектор | Конечный сектор
---------------------------------------------------------------------
1 | 0:00.00 | 7:31.27 | 0 | 33851
2 | 7:31.27 | 1:14.18 | 33852 | 39419
3 | 8:45.45 | 3:10.27 | 39420 | 53696
4 | 11:55.72 | 1:22.05 | 53697 | 59851
5 | 13:18.02 | 9:05.40 | 59852 | 100766
6 | 22:23.42 | 0:57.58 | 100767 | 105099
7 | 23:21.25 | 6:22.62 | 105100 | 133811
8 | 29:44.12 | 4:45.38 | 133812 | 155224
9 | 34:29.50 | 0:44.50 | 155225 | 158574
10 | 35:14.25 | 4:44.07 | 158575 | 179881
11 | 39:58.32 | 1:12.65 | 179882 | 185346
12 | 41:11.22 | 1:37.65 | 185347 | 192686
13 | 42:49.12 | 1:14.18 | 192687 | 198254
14 | 44:03.30 | 3:51.47 | 198255 | 215626
15 | 47:55.02 | 1:29.18 | 215627 | 222319
16 | 49:24.20 | 8:49.02 | 222320 | 261996
17 | 58:13.22 | 1:02.73 | 261997 | 266719
Характеристики диапазона извлечения и сообщения об ошибках
Выбранный диапазон
Имя файла D:\EAC\Мои раздачи\Bach - Das Kantatenwerk, Vol. 1 - Harnoncourt & Leonhardt\CD5\Harnoncourt & Leonhardt - Bach - Das Kantatenwerk, Vol. 1 - CD5.wav
Пиковый уровень 98.8 %
Скорость извлечения 4.1 X
Качество диапазона 100.0 %
CRC теста 12F7C10B
CRC копии 12F7C10B
Копирование... OK
Ошибок не произошло
AccurateRip: сводка
Трек 1 : извлечено точно (доверие 6) [8E7F6E97] (AR v2)
Трек 2 : извлечено точно (доверие 6) [9575187B] (AR v2)
Трек 3 : извлечено точно (доверие 6) [53CCA90F] (AR v2)
Трек 4 : извлечено точно (доверие 6) [4F633EDA] (AR v2)
Трек 5 : извлечено точно (доверие 6) [C9611C6E] (AR v2)
Трек 6 : извлечено точно (доверие 6) [860D9002] (AR v2)
Трек 7 : извлечено точно (доверие 6) [AEC45417] (AR v2)
Трек 8 : извлечено точно (доверие 6) [A3062C02] (AR v2)
Трек 9 : извлечено точно (доверие 6) [736B0205] (AR v2)
Трек 10 : извлечено точно (доверие 5) [4D3209BD] (AR v2)
Трек 11 : извлечено точно (доверие 6) [50199107] (AR v2)
Трек 12 : извлечено точно (доверие 6) [A880AF9A] (AR v2)
Трек 13 : извлечено точно (доверие 6) [C0566C9E] (AR v2)
Трек 14 : извлечено точно (доверие 6) [D783C06B] (AR v2)
Трек 15 : извлечено точно (доверие 6) [DD1EEF25] (AR v2)
Трек 16 : извлечено точно (доверие 6) [395952A8] (AR v2)
Трек 17 : извлечено точно (доверие 6) [CF316D09] (AR v2)
Все треки извлечены точно
Конец отчёта
==== Контрольная сумма отчёта C79D4675D5BC160C979309544B6205FE6CA42133FC5C4902FF5476A57C4BD8A9 ====

CD6:Треклист:

Wer Dank opfert, der preiset mich BWV 17 / BC A131
Dominica 14 Post Trinitatis / At the 14th Sunday after Trinity
Text: Anon. C. 1705 (2, 3, 5, 6); 1. Psalm, 50, 23 (1); Lukas 17, 15 - 16 (4); Johann Cramann, 1530 (7)
Prima Parte
01. I. [Coro]: «Wer Dank opfert, der preiset mich»
Oboi d'amore, Violini, Viola, Basso continuo
02. II. Recitativo (Alto): «Es Muß die ganze Welt»
Basso continuo
03. III. Aria (Soprano): «Herr, Deine Güte»
Violini, Basso continuo
Seconda Parte
04. IV. Recitatvo (Tenore): «Einer aber unter ihnen»
Basso continuo
05. V. Aria (Tenore): «Welch Übermaß der Güte»
Violini, Viola, Basso continuo
06. VI. Recitativo (Basso): «Sieh meinen Willen an»
Basso continuo
07. VII. Choral (Coro): «Wie sich ein Vatr erbarmet»
Oboi, Violini, Viola, Basso, Basso continuo
Gleichwie der Regen und Schnee vom Himmel fällt BWV 18 / BC A44a
Weimar Version
Domenica Sexagesimae / At the Sunday Sexagesimae
Text: Erdmann Neumeister, 1711; Jesaja 55, 10 - 11 (2); Psalm 118, 25, (M. Luther, Litanei Deutsch) 1528 / 29 (3); Lazarus Spengler, 1524 (5)
08. I. Sinfonia
Viole, Fagolto, Violoncello, Basso continuo
09. II. Recitativo (Basso): «Gleichwie der Regen und Schnee»
Basso continuo
10. III. Recitativo [& Litanei] (Soprano, Tenore, Basso, Coro): «Mein Gott, hier wird mein Herze sein»
Viole, Fagotto, Violoncello, Basso continuo
11. IV. Aria (Soprano): «Mein Seelenschatz ist Gottes Wort»
Viole, Basso continuo
12. V. Choral (Coro): «Ich bitt, o Herr, aus Herzensgrund»
Viole, Fagotto, Basso continuo
Es erhub sich ein Streit BWV 19 / BC A180
Festo Michaelis / At the Feast St Michael
Text: Anon. (1 - 2, 4 - 7); C. F. Henrici (Picander), 1725 (3);
13. I. [Coro]: «Es erhub sich ein Streit»
Trombe, Timpani, Oboi, Taille, Violini, Viola, Basso continuo
14. II. Recitativo (Basso): «Gottlob! der Drache liegt»
Basso continuo
15. III. Aria (Soprano): «Gott schickt uns Mahanaim zu»
Oboe d'amore, Basso continuo
16. IV. Recitativo (Tenore): «Was ist der schnöde Mensch»
Violini, Viola, Basso continuo
17. V. Aria (Tenore): «Bleibt, ihr Engel, bleibt bei mir!»
Tromba, Violini, Viola, Basso continuo
18. VI. Recitativo (Soprano): «Laßt uns das Angesicht»
Basso continuo
19. VII. Choral (Coro): «Laß dein Engel mit mir fahren»
Trombe, Timpani, Oboi, Taille, Violini, Viola, Basso continuo
Total 52.06

Лог создания рипа:

Exact Audio Copy V1.0 beta 3 from 29. August 2011
Отчёт EAC об извлечении, выполненном 7. августа 2015, 20:33
Harnoncourt & Leonhardt / Bach - Das Kantatenwerk, Vol. 1 - CD6
Дисковод: Optiarc DVD RW AD-7260S Adapter: 0 ID: 1
Режим чтения : Достоверность
Использование точного потока : Да
Отключение кэша аудио : Да
Использование указателей C2 : Нет
Коррекция смещения при чтении : 48
Способность читать области Lead-in и Lead-out : Нет
Заполнение пропущенных сэмплов тишиной : Да
Удаление блоков с тишиной в начале и конце : Нет
При вычислениях CRC использовались нулевые сэмплы : Да
Интерфейс : Встроенный Win32-интерфейс для Win NT/2000
Выходной формат : Пользовательский кодировщик
Выбранный битрейт : 896 kBit/s
Качество : Высокий
Добавление ID3-тега : Нет
Утилита сжатия : C:\Program Files\FLAC Frontend\tools\flac.exe
Дополнительные параметры : -V -8 -T "Date=%year%" -T "Genre=%genre%" %source%
TOC извлечённого CD
Трек | Старт | Длительность | Начальный сектор | Конечный сектор
---------------------------------------------------------------------
1 | 0:00.00 | 5:04.15 | 0 | 22814
2 | 5:04.15 | 1:03.12 | 22815 | 27551
3 | 6:07.27 | 3:48.73 | 27552 | 44724
4 | 9:56.25 | 0:41.07 | 44725 | 47806
5 | 10:37.32 | 4:11.43 | 47807 | 66674
6 | 14:49.00 | 1:07.60 | 66675 | 71759
7 | 15:56.60 | 2:00.02 | 71760 | 80761
8 | 17:56.62 | 3:06.38 | 80762 | 94749
9 | 21:03.25 | 1:05.52 | 94750 | 99676
10 | 22:09.02 | 5:50.33 | 99677 | 125959
11 | 27:59.35 | 3:03.50 | 125960 | 139734
12 | 31:03.10 | 1:23.67 | 139735 | 146026
13 | 32:27.02 | 4:46.00 | 146027 | 167476
14 | 37:13.02 | 0:49.68 | 167477 | 171219
15 | 38:02.70 | 4:20.47 | 171220 | 190766
16 | 42:23.42 | 0:47.00 | 190767 | 194291
17 | 43:10.42 | 6:40.40 | 194292 | 224331
18 | 49:51.07 | 0:37.70 | 224332 | 227176
19 | 50:29.02 | 1:36.35 | 227177 | 234411
Характеристики диапазона извлечения и сообщения об ошибках
Выбранный диапазон
Имя файла D:\EAC\Мои раздачи\Bach - Das Kantatenwerk, Vol. 1 - Harnoncourt & Leonhardt\CD6\Harnoncourt & Leonhardt - Bach - Das Kantatenwerk, Vol. 1 - CD6.wav
Пиковый уровень 96.3 %
Скорость извлечения 3.8 X
Качество диапазона 100.0 %
CRC теста 908E37BE
CRC копии 908E37BE
Копирование... OK
Ошибок не произошло
AccurateRip: сводка
Трек 1 : извлечено точно (доверие 12) [E3745636] (AR v2)
Трек 2 : извлечено точно (доверие 12) [9CA8D4D4] (AR v2)
Трек 3 : извлечено точно (доверие 12) [60478543] (AR v2)
Трек 4 : извлечено точно (доверие 12) [DD6A6E16] (AR v2)
Трек 5 : извлечено точно (доверие 12) [EB67642F] (AR v2)
Трек 6 : извлечено точно (доверие 12) [359BC5CB] (AR v2)
Трек 7 : извлечено точно (доверие 12) [59DD067B] (AR v2)
Трек 8 : извлечено точно (доверие 11) [67827AEE] (AR v2)
Трек 9 : извлечено точно (доверие 12) [6738C63B] (AR v2)
Трек 10 : извлечено точно (доверие 12) [82B996A3] (AR v2)
Трек 11 : извлечено точно (доверие 12) [10119335] (AR v2)
Трек 12 : извлечено точно (доверие 12) [8B1DE2BC] (AR v2)
Трек 13 : извлечено точно (доверие 12) [B79308B5] (AR v2)
Трек 14 : извлечено точно (доверие 12) [3BC8BBFC] (AR v2)
Трек 15 : извлечено точно (доверие 12) [FC4B69B3] (AR v2)
Трек 16 : извлечено точно (доверие 12) [487BC91A] (AR v2)
Трек 17 : извлечено точно (доверие 12) [12233687] (AR v2)
Трек 18 : извлечено точно (доверие 12) [AC911E9E] (AR v2)
Трек 19 : извлечено точно (доверие 12) [B254684A] (AR v2)
Все треки извлечены точно
Конец отчёта
==== Контрольная сумма отчёта 5AEB5AF235878A07E936421F35D0C885C46D032C8F81ADA31C886465916AE4C0 ====

Исполнители:

Soloist Of The Wiener Sängerknaben, Soprano
Kurt Equiluz, Tenor
Max Van Egmond, Bass
Wiener Sängerknaben
Chorus Viennensis
Chorus Master: Hans Gillesberger
Concentus Musicus Wien
Nikolaus Harnoncourt (BWV 1, BWV 18, BWV 19)
Paul Esswood, Alto
Kurt Equiluz, Tenor
Max Van Egmond, Bass
Wiener Sängerknaben
Chorus Viennensis
Chorus Master: Hans Gillesberger
Concentus Musicus Wien
Nikolaus Harnoncourt (BWV 2)
Soloist Of The Wiener Sängerknaben, Soprano
Paul Esswood, Alto
Kurt Equiluz, Tenor
Max Van Egmond, Bass
Wiener Sängerknaben
Chorus Viennensis
Chorus Master: Hans Gillesberger
Concentus Musicus Wien
Nikolaus Harnoncourt (BWV 3, BWV 4, BWV 5, BWV 6, BWV 11, BWV 17)
Paul Esswood, Alto
Kurt Equiluz, Tenor
Max Van Egmond, Bass
King's College Choir Cambridge
Chorus Master: David Willcocks
Leonhardt-Consort
Gustav Leonhardt (BWV 7)
Soloist Of The Regensburger Domspatzen, Soprano
Paul Esswood, Alto
Kurt Equiluz, Tenor
Max Van Egmond, Bass
King's College Choir Cambridge
Chorus Master: David Willcocks
Leonhardt-Consort
Gustav Leonhardt (BWV 8, BWV 9, BWV 10)
Paul Esswood, Alto
Kurt Equiluz, Tenor
Max Van Egmond, Bass
Tölzer Knabenchor
Chorus Master: Gerhard Schmidt-Gaden
King's College Choir Cambridge
Chorus Master: David Willcocks
Leonhardt-Consort
Gustav Leonhardt (BWV 12, BWV 16)
Walter Gampert (Soloist Of The Tölzer Knabenchor), Soprano
Paul Esswood, Alto
Kurt Equiluz, Tenor
Max Van Egmond, Bass
Tölzer Knabenchor
Chorus Master: Gerhard Schmidt-Gaden
King's College Choir Cambridge
Chorus Master: David Willcocks
Leonhardt-Consort
Gustav Leonhardt (BWV 13)
Peter Hinterreiter (Soloist Of The Tölzer Knabenchor), Soprano
Marius Van Altena, Tenor
Max Van Egmond, Bass
Tölzer Knabenchor
Chorus Master: Gerhard Schmidt-Gaden
King's College Choir Cambridge
Chorus Master: David Willcocks
Leonhardt-Consort
Gustav Leonhardt (BWV 14)
Vol. 2:Bach - Das Kantatenwerk, Vol. 2 - Harnoncourt, Leonhardt
Жанр: Classical, Choral
Страна-производитель диска: Germany
Год издания диска: 1994
Издатель (лейбл): Teldec Classics
Номер по каталогу: 4509-91756-2
Дата записи: 1972-1974
Аудиокодек: FLAC
Тип рипа: image+.cue
Битрейт аудио: lossless
Продолжительность: 384"02
Источник: собственный рип
Наличие сканов в содержимом раздачи: да

CD1:Треклист:

O Ewigkeit, du Donnerwort BWV 20 / BC A 95
Dominica 1 Post Trinitatis / At the 1st Sunday after Trinity
Prima Parte
01. I. [Coro]: «O Ewigkeit, du Donnerwort»
02. II. Recitativo (Tenore): «Kein Unglück ist in aller Welt zu finden»
03. III. Aria (Tenore): «Ewigkeit, du machst mir bange»
04. IV. Recitativo (Basso): «Gesetzt, es daurte der Verdammten Qual»
05. V. Aria (Basso): «Gott ist gerecht»
06. VI. Aria (Alto): «O Mensch, errette deine Seele»
07. VII. Choral (Coro): « Solang ein Gott im Himmel lebt»
Seconda Parte
08. VIII. Aria (Basso): «Wacht auf, wacht auf, verlornen Schafe»
09. IX. Recitativo (Alto): «Verlaß, o Mensch, die Wollust dieser Welt»
10. X. Aria (Duetto: Alto, Tenore): «O Menschenkind, hör auf geschwind»
11. XI. Choral (Coro): “О Ewigkeit, du Donnerwort»
Ich hatte viel Bekümmernis BWV 21 / ВC A 99c
Dominica 3 Post Trinitatis / Per ogni Tempo
At the 3nd Sunday after Trinity
Prima Parte
12. I. Sinfonia
13. II. Coro: «Ich hatte viel Bekümmernis»
14. III. Aria (Soprano): «Seufzer, Tränen, Kummer, Not»
15. IV. Recitativo (Tenore): «Wie hast du dich, mein Gott»
16. V. Aria (Tenore): «Bäche von gesalznen Zähren»
17. VI. Coro (Soprano, Alto, Tenore, Basso, Coro): «Was betrübst du dich, meine Seele»
Seconda Parte
18. VII. Recitativo (Soprano, Basso): «Ach Jesu, meine Ruh»
19. VIII. Duetto (Soprano, Basso): «Komm, mein Jesu»
20. IX. Coro (Soprano, Alto, Tenore, Basso, Coro): «Sei nun wieder zufrieden»
21. X. Aria (Tenore): «Erfreue dich, Seele»
22. XI. Coro (Soprano, Alto, Tenore, Basso, Coro): «Das Lamm, das erwürget ist»
Total 63.57

Лог создания рипа:

Exact Audio Copy V1.0 beta 3 from 29. August 2011
Отчёт EAC об извлечении, выполненном 19. августа 2015, 22:11
Harnoncourt & Leonhardt / Bach- Das Kantatenwerk, Vol. 2 - CD1
Дисковод: Optiarc DVD RW AD-7260S Adapter: 0 ID: 1
Режим чтения : Достоверность
Использование точного потока : Да
Отключение кэша аудио : Да
Использование указателей C2 : Нет
Коррекция смещения при чтении : 48
Способность читать области Lead-in и Lead-out : Нет
Заполнение пропущенных сэмплов тишиной : Да
Удаление блоков с тишиной в начале и конце : Нет
При вычислениях CRC использовались нулевые сэмплы : Да
Интерфейс : Встроенный Win32-интерфейс для Win NT/2000
Выходной формат : Пользовательский кодировщик
Выбранный битрейт : 896 kBit/s
Качество : Высокий
Добавление ID3-тега : Нет
Утилита сжатия : C:\Program Files\FLAC Frontend\tools\flac.exe
Дополнительные параметры : -V -8 -T "Date=%year%" -T "Genre=%genre%" %source%
TOC извлечённого CD
Трек | Старт | Длительность | Начальный сектор | Конечный сектор
---------------------------------------------------------------------
1 | 0:00.00 | 4:44.17 | 0 | 21316
2 | 4:44.17 | 0:52.38 | 21317 | 25254
3 | 5:36.55 | 3:21.15 | 25255 | 40344
4 | 8:57.70 | 1:12.50 | 40345 | 45794
5 | 10:10.45 | 4:26.60 | 45795 | 65804
6 | 14:37.30 | 2:23.32 | 65805 | 76561
7 | 17:00.62 | 1:00.35 | 76562 | 81096
8 | 18:01.22 | 2:45.38 | 81097 | 93509
9 | 20:46.60 | 1:15.72 | 93510 | 99206
10 | 22:02.57 | 3:42.03 | 99207 | 115859
11 | 25:44.60 | 1:15.17 | 115860 | 121501
12 | 27:00.02 | 2:31.43 | 121502 | 132869
13 | 29:31.45 | 3:00.57 | 132870 | 146426
14 | 32:32.27 | 3:48.18 | 146427 | 163544
15 | 36:20.45 | 1:33.20 | 163545 | 170539
16 | 37:53.65 | 4:57.25 | 170540 | 192839
17 | 42:51.15 | 3:34.17 | 192840 | 208906
18 | 46:25.32 | 1:13.58 | 208907 | 214439
19 | 47:39.15 | 4:31.57 | 214440 | 234821
20 | 52:10.72 | 5:09.40 | 234822 | 258036
21 | 57:20.37 | 3:15.30 | 258037 | 272691
22 | 60:35.67 | 3:20.33 | 272692 | 287724
Характеристики диапазона извлечения и сообщения об ошибках
Выбранный диапазон
Имя файла D:\EAC\Мои раздачи\Bach - Das Kantatenwerk, Vol. 2 - Harnoncourt, Leonhardt\CD1\Harnoncourt & Leonhardt - Bach- Das Kantatenwerk, Vol. 2 - CD1.wav
Пиковый уровень 93.7 %
Скорость извлечения 4.4 X
Качество диапазона 100.0 %
CRC теста 46508DE3
CRC копии 46508DE3
Копирование... OK
Ошибок не произошло
AccurateRip: сводка
Трек 1 : извлечено точно (доверие 9) [DF340A45] (AR v2)
Трек 2 : извлечено точно (доверие 9) [284E4396] (AR v2)
Трек 3 : извлечено точно (доверие 9) [C105113B] (AR v2)
Трек 4 : извлечено точно (доверие 9) [C76BA88C] (AR v2)
Трек 5 : извлечено точно (доверие 9) [E7A510C4] (AR v2)
Трек 6 : извлечено точно (доверие 9) [6745F520] (AR v2)
Трек 7 : извлечено точно (доверие 9) [1C9EEAD4] (AR v2)
Трек 8 : извлечено точно (доверие 9) [E5BFB385] (AR v2)
Трек 9 : извлечено точно (доверие 9) [8D5CF0B6] (AR v2)
Трек 10 : извлечено точно (доверие 9) [1C5081D0] (AR v2)
Трек 11 : извлечено точно (доверие 9) [9DFDFE9F] (AR v2)
Трек 12 : извлечено точно (доверие 9) [E018C688] (AR v2)
Трек 13 : извлечено точно (доверие 9) [CC7DC951] (AR v2)
Трек 14 : извлечено точно (доверие 9) [0DDF230E] (AR v2)
Трек 15 : извлечено точно (доверие 9) [E09C5296] (AR v2)
Трек 16 : извлечено точно (доверие 9) [76166A64] (AR v2)
Трек 17 : извлечено точно (доверие 9) [5585D1A6] (AR v2)
Трек 18 : извлечено точно (доверие 9) [0002534C] (AR v2)
Трек 19 : извлечено точно (доверие 9) [C0B9DF14] (AR v2)
Трек 20 : извлечено точно (доверие 8) [1B4A16F3] (AR v2)
Трек 21 : извлечено точно (доверие 9) [B86CB439] (AR v2)
Трек 22 : извлечено точно (доверие 9) [B1E6DE16] (AR v2)
Все треки извлечены точно
Конец отчёта
==== Контрольная сумма отчёта ECACF2BD41B8262D1843476DFA1690A796FD36596D9416E3D8F26D44DA80464F ====

CD2:Треклист:

Jesus nahm zu sich die Zwölfe BWV 22 / ВC A 48
Dominica Estomihi / At the Sunday Quinquagesimae
01. I. [Aria / Coro] (Tenore, Basso): «Jesus nahm zu sich die Zwölfe»
02. II. Aria (Alto): «Mein Jesu, ziehe mich nach dir»
03. III. Recitativo (Basso): «Mein Jesu, ziehe mich»
04. IV. Aria (Tenore): «Mein Alles in Allem»
05. V. Choral (Coro):»Ertöt uns durch dein Güte»
Du wahrer Gott und Davids Bohn BWV 23 / ВC A 47c
Dominica Estomihi / At the Sunday Quinquagesimae
06. I. Aria [Duetto] (Soprano, Alto): «Du wahrer Gott und Davids Sohn»
07. II. Recitativo (Tenore): «Ach, gehe nicht vorüber»
08. III. [Coro]: «Aller Augen warten, Herr»
09. IV. Choral (Coro): «Christe, du Lamm Gottes»
Ein ungefärbt Gemüte BWV 24 / ВC A 102
Dominica 4 post Trinitatis / At the 4th Sunday after Trinity
10. I. Aria (Alto): «Ein ungefärbt Gemüte»
11. II. Recitativo (Tenore): «Die Redlichkeit ist eine von den Cottesgaben»
12. III. [Coro]: «Alles nun, das ihr wollet»
13. IV. Recitativo (Basso): «Die Heuchelei ist eine Brut»
14. V. Aria (Tenore): «Treu und Wahrheit sei der Crund»
15. Choral (Coro): «O Gott, du frommer Gott»
Es ist nichts Gesundes an meinem Leibe BWV 25 / ВC A 129
Dominica 14 post Trinitatis / At the 14th Sunday after Triniti
16. I. [Coro]: «Es ist nichts Gesundes an meinem Leibe»
17. II. Recitativo (Tenore): «Die ganze Welt ist nur ein Hospital”
18. III. Aria (Basso): «Ach, wo hoi ich Armer Rat»
19. IV. Recitativo (Soprano): «O Jesu, lieber Meister»
20. V. Aria (Soprano): «Öffne meinen schlechten Liedern»
21. VI. Choral (Coro): «Ich will alle meine Tage»
Total 69.35

Лог создания рипа:

Exact Audio Copy V1.0 beta 3 from 29. August 2011
Отчёт EAC об извлечении, выполненном 20. августа 2015, 12:30
Harnoncourt & Leonhardt / Bach - Das Kantatenwerk, Vol. 2 - CD2
Дисковод: Optiarc DVD RW AD-7260S Adapter: 0 ID: 1
Режим чтения : Достоверность
Использование точного потока : Да
Отключение кэша аудио : Да
Использование указателей C2 : Нет
Коррекция смещения при чтении : 48
Способность читать области Lead-in и Lead-out : Нет
Заполнение пропущенных сэмплов тишиной : Да
Удаление блоков с тишиной в начале и конце : Нет
При вычислениях CRC использовались нулевые сэмплы : Да
Интерфейс : Встроенный Win32-интерфейс для Win NT/2000
Выходной формат : Пользовательский кодировщик
Выбранный битрейт : 896 kBit/s
Качество : Высокий
Добавление ID3-тега : Нет
Утилита сжатия : C:\Program Files\FLAC Frontend\tools\flac.exe
Дополнительные параметры : -V -8 -T "Date=%year%" -T "Genre=%genre%" %source%
TOC извлечённого CD
Трек | Старт | Длительность | Начальный сектор | Конечный сектор
---------------------------------------------------------------------
1 | 0:00.00 | 4:51.30 | 0 | 21854
2 | 4:51.30 | 5:04.55 | 21855 | 44709
3 | 9:56.10 | 2:06.30 | 44710 | 54189
4 | 12:02.40 | 3:42.10 | 54190 | 70849
5 | 15:44.50 | 2:09.25 | 70850 | 80549
6 | 17:54.00 | 7:59.10 | 80550 | 116484
7 | 25:53.10 | 1:30.45 | 116485 | 123279
8 | 27:23.55 | 4:29.10 | 123280 | 143464
9 | 31:52.65 | 5:08.67 | 143465 | 166631
10 | 37:01.57 | 3:33.68 | 166632 | 182674
11 | 40:35.50 | 1:51.50 | 182675 | 191049
12 | 42:27.25 | 3:58.65 | 191050 | 208964
13 | 46:26.15 | 1:29.27 | 208965 | 215666
14 | 47:55.42 | 3:38.65 | 215667 | 232081
15 | 51:34.32 | 2:42.33 | 232082 | 244264
16 | 54:16.65 | 4:43.50 | 244265 | 265539
17 | 59:00.40 | 1:27.15 | 265540 | 272079
18 | 60:27.55 | 3:05.57 | 272080 | 286011
19 | 63:33.37 | 1:10.73 | 286012 | 291334
20 | 64:44.35 | 3:38.65 | 291335 | 307749
21 | 68:23.25 | 1:11.17 | 307750 | 313091
Характеристики диапазона извлечения и сообщения об ошибках
Выбранный диапазон
Имя файла D:\EAC\Мои раздачи\Bach - Das Kantatenwerk, Vol. 2 - Harnoncourt, Leonhardt\CD2\Harnoncourt & Leonhardt - Bach - Das Kantatenwerk, Vol. 2 - CD2.wav
Пиковый уровень 92.2 %
Скорость извлечения 4.4 X
Качество диапазона 99.9 %
CRC теста 966BCAC9
CRC копии 966BCAC9
Копирование... OK
Ошибок не произошло
AccurateRip: сводка
Трек 1 : извлечено точно (доверие 16) [8415EBDE] (AR v2)
Трек 2 : извлечено точно (доверие 16) [A2B77B27] (AR v2)
Трек 3 : извлечено точно (доверие 16) [E1A99E1E] (AR v2)
Трек 4 : извлечено точно (доверие 16) [3D34A296] (AR v2)
Трек 5 : извлечено точно (доверие 16) [88FDC51E] (AR v2)
Трек 6 : извлечено точно (доверие 16) [35065C9D] (AR v2)
Трек 7 : извлечено точно (доверие 16) [ED2372DB] (AR v2)
Трек 8 : извлечено точно (доверие 16) [8C70808E] (AR v2)
Трек 9 : извлечено точно (доверие 15) [3D58EED9] (AR v2)
Трек 10 : извлечено точно (доверие 15) [A58B9F13] (AR v2)
Трек 11 : извлечено точно (доверие 16) [8DCEDCED] (AR v2)
Трек 12 : извлечено точно (доверие 15) [4F41B566] (AR v2)
Трек 13 : извлечено точно (доверие 16) [5A88CD53] (AR v2)
Трек 14 : извлечено точно (доверие 16) [65691695] (AR v2)
Трек 15 : извлечено точно (доверие 16) [7DA66651] (AR v2)
Трек 16 : извлечено точно (доверие 14) [5CF8DFC6] (AR v2)
Трек 17 : извлечено точно (доверие 15) [2D31BF8B] (AR v2)
Трек 18 : извлечено точно (доверие 15) [FAA74254] (AR v2)
Трек 19 : извлечено точно (доверие 16) [1BB9117D] (AR v2)
Трек 20 : извлечено точно (доверие 15) [A8AB9FAB] (AR v2)
Трек 21 : извлечено точно (доверие 16) [D1550FDB] (AR v2)
Все треки извлечены точно
Конец отчёта
==== Контрольная сумма отчёта 1ED09BB24D8164593B509E57F757897C74D9E55FA009A9088A23AAFB9D86B62D ====

CD3:Треклист:

Ach wie flüchtig, ach wie nichtig BWV26 / ВC A 162
Dominica 24 Post Trinitatis / At the 24th Sunday after Trinity
01. I. [Coro]: «Ach wie flüchtig, ach wie nichtig»
02. II. Aria (Tenore): «So schnell ein rauschend Wasser schießt»
03. III. Recitativo (Alto): «Die Freude wird zur Traurigkeit»
04. IV. Aria (Basso): «An irdische Schätze das Herze Zu hängen»
05. V. Recitativo (Soprano): «Die höchste Herrlichkeit und Pracht»
06. VI. Choral (Coro): «Ach wie flüchtig, ach wie nichtig»
Wer Weiß, wie nahe mir mein Ende! BWV 27 / ВC A 138
Dominica 16 Post Trinitatis / At the 16th Sunday after Trinity
07. I. [Coro / Recitativo]: «Wer Weiß, wie nahe mir mein Ende!»
08. II. Recitativo (Tenore): «Mein Leben hat kein ander Ziel»
09. III. Aria (Alto): «Willkommen! will ich sagen»
10. IV. Recitativo (Soprano): «Ach, wer doch schon im Himmel wär!»
11. V. Aria (Basso): «Gute Nacht, du Weltgetümmel!»
12. VI. Choral (Coro): «Welt ade! ich bin dein müde»
Gottlob! nun geht das Jahr zu Ende BWV 28 / ВC A 20
Dominica Post Nativitatis Christi / At the Sunday after Christmas
13. I. Aria (Soprano): «Gottlob! nun geht das Jahr zu Ende»
14. II. [Coro]: «Nun lob, mein Seel, den Herren»
15. III. (Recitativo / Arioso) (Basso): «So spricht der Herr»
16. IV. Recitativo (Tenore): «Cott ist ein Quell, wo Lauter Güte fleußt»
17. V. Aria (Duetto: Alto, Tenore): «Gott hat uns im heurigen Jahr gesegnet»
18. VI. Choral (Coro): «All solch dein Güt wir preisen»
Wir danken dir, Gott, wir danken dir BWV 29 / ВC В 8
Kantate zum Ratswechsel 1731 / For the town council election
19. I. Sinfonia
20. II. [Coro]: «Wir danken dir, Gott, wir danken dir»
21. III. Aria (Tenore): «Halleluja, Stärk und Macht»
22. IV. Recitativo (Basso): «Cottlob! es geht uns Wohl!»
23. V. Aria (Soprano): «Gedenk an uns mit deiner Liebe»
24. VI. Recitativo (Alto, Coro): «Vergiß es ferner nicht»
25. VII. Aria (Alto): «Halleluja, Stärk und Macht»
26. VIII. Choral (Coro): «Sei Lob und Preis mit Ehren»
Total 72.03

Лог создания рипа:

Exact Audio Copy V1.0 beta 3 from 29. August 2011
Отчёт EAC об извлечении, выполненном 20. августа 2015, 16:43
Harnoncourt & Leonhardt / Bach - Das Kantatenwerk, Vol. 2 - CD3
Дисковод: Optiarc DVD RW AD-7260S Adapter: 0 ID: 1
Режим чтения : Достоверность
Использование точного потока : Да
Отключение кэша аудио : Да
Использование указателей C2 : Нет
Коррекция смещения при чтении : 48
Способность читать области Lead-in и Lead-out : Нет
Заполнение пропущенных сэмплов тишиной : Да
Удаление блоков с тишиной в начале и конце : Нет
При вычислениях CRC использовались нулевые сэмплы : Да
Интерфейс : Встроенный Win32-интерфейс для Win NT/2000
Выходной формат : Пользовательский кодировщик
Выбранный битрейт : 896 kBit/s
Качество : Высокий
Добавление ID3-тега : Нет
Утилита сжатия : C:\Program Files\FLAC Frontend\tools\flac.exe
Дополнительные параметры : -V -8 -T "Date=%year%" -T "Genre=%genre%" %source%
TOC извлечённого CD
Трек | Старт | Длительность | Начальный сектор | Конечный сектор
---------------------------------------------------------------------
1 | 0:00.00 | 2:49.00 | 0 | 12674
2 | 2:49.00 | 7:42.07 | 12675 | 47331
3 | 10:31.07 | 0:49.20 | 47332 | 51026
4 | 11:20.27 | 3:53.35 | 51027 | 68536
5 | 15:13.62 | 0:44.05 | 68537 | 71841
6 | 15:57.67 | 0:50.38 | 71842 | 75629
7 | 16:48.30 | 4:54.55 | 75630 | 97734
8 | 21:43.10 | 0:47.22 | 97735 | 101281
9 | 22:30.32 | 4:29.40 | 101282 | 121496
10 | 26:59.72 | 0:37.48 | 121497 | 124319
11 | 27:37.45 | 3:34.32 | 124320 | 140401
12 | 31:12.02 | 1:15.10 | 140402 | 146036
13 | 32:27.12 | 4:21.63 | 146037 | 165674
14 | 36:49.00 | 4:58.42 | 165675 | 188066
15 | 41:47.42 | 1:54.25 | 188067 | 196641
16 | 43:41.67 | 1:03.65 | 196642 | 201431
17 | 44:45.57 | 2:32.60 | 201432 | 212891
18 | 47:18.42 | 1:11.15 | 212892 | 218231
19 | 48:29.57 | 3:37.38 | 218232 | 234544
20 | 52:07.20 | 3:03.30 | 234545 | 248299
21 | 55:10.50 | 6:30.45 | 248300 | 277594
22 | 61:41.20 | 0:49.35 | 277595 | 281304
23 | 62:30.55 | 5:48.40 | 281305 | 307444
24 | 68:19.20 | 0:25.67 | 307445 | 309386
25 | 68:45.12 | 1:52.63 | 309387 | 317849
26 | 70:38.00 | 1:24.25 | 317850 | 324174
Характеристики диапазона извлечения и сообщения об ошибках
Выбранный диапазон
Имя файла D:\EAC\Мои раздачи\Bach - Das Kantatenwerk, Vol. 2 - Harnoncourt, Leonhardt\CD3\Harnoncourt & Leonhardt - Bach - Das Kantatenwerk, Vol. 2 - CD3.wav
Пиковый уровень 99.0 %
Скорость извлечения 4.4 X
Качество диапазона 99.9 %
CRC теста 6AB3B619
CRC копии 6AB3B619
Копирование... OK
Ошибок не произошло
AccurateRip: сводка
Трек 1 : извлечено точно (доверие 15) [DA32A411] (AR v2)
Трек 2 : извлечено точно (доверие 15) [5B61D394] (AR v2)
Трек 3 : извлечено точно (доверие 15) [C1A7DB95] (AR v2)
Трек 4 : извлечено точно (доверие 15) [CA98F453] (AR v2)
Трек 5 : извлечено точно (доверие 15) [55A3B319] (AR v2)
Трек 6 : извлечено точно (доверие 15) [C46EED84] (AR v2)
Трек 7 : извлечено точно (доверие 15) [A69AEDA4] (AR v2)
Трек 8 : извлечено точно (доверие 15) [16C16FAD] (AR v2)
Трек 9 : извлечено точно (доверие 15) [01CACC6B] (AR v2)
Трек 10 : извлечено точно (доверие 15) [6A506894] (AR v2)
Трек 11 : извлечено точно (доверие 15) [0E498551] (AR v2)
Трек 12 : извлечено точно (доверие 15) [D7FCEA0C] (AR v2)
Трек 13 : извлечено точно (доверие 15) [929B20D9] (AR v2)
Трек 14 : извлечено точно (доверие 15) [9A6E64D6] (AR v2)
Трек 15 : извлечено точно (доверие 15) [516119EA] (AR v2)
Трек 16 : извлечено точно (доверие 15) [97370E5A] (AR v2)
Трек 17 : извлечено точно (доверие 15) [C2C8E198] (AR v2)
Трек 18 : извлечено точно (доверие 15) [C262885A] (AR v2)
Трек 19 : извлечено точно (доверие 15) [5304D25B] (AR v2)
Трек 20 : извлечено точно (доверие 15) [B50A8641] (AR v2)
Трек 21 : извлечено точно (доверие 15) [F28C4964] (AR v2)
Трек 22 : извлечено точно (доверие 15) [AA0E5CEB] (AR v2)
Трек 23 : извлечено точно (доверие 15) [D67E092B] (AR v2)
Трек 24 : извлечено точно (доверие 15) [C4A04532] (AR v2)
Трек 25 : извлечено точно (доверие 15) [3F636CE5] (AR v2)
Трек 26 : извлечено точно (доверие 15) [D8D387B5] (AR v2)
Все треки извлечены точно
Конец отчёта
==== Контрольная сумма отчёта 33550D6BABCA07DFB7FC73664BD225C7114BBFC6FBC81CEDF9F8536C2E6D3C67 ====

CD4:Треклист:

Freue dich, erlöste Schar BWV 30 / ВC A 178
Festo S. Joannis Baptiste / At the Feast of John the Baptist
Prima Parte
01. I. Coro: «Freue dich, erlöste Schar»
02. II. Recitativo (Basso): «Wir haben Rast»
03. III. Aria (Basso): «Celobet sei Cott, gelobet sein Name»
04. IV. Recitativo (Alto): «Der herold kömmt»
05. V. Aria (Alto): «Kommt, ihr angetochtnen Sünder»
06. VI. Choral (Coro): «Eine Stimme Läßt sich hören»
Seconda Parte
07. VII. Recitativo (Basso): «So bist du denn, mein Heil, bedacht»
08. VIII. Aria (Basso): «Ich will nun hassen»
09. IX. Recitativo (Soprano): «Und ob wohl sonst der Unbestand»
10. X. Aria (Soprano): «Eilt, ihr Stunden, kommt herbei»
11. XI. Recitativo (Tenore): «Geduld, der angenehme Tag»
12. XII. Coro: «Freue dich, geheilgte Schar»
Der Himmel lacht! die Erde jubilieret BWV 31 / ВC A 55b
Feria 1 Paschatos / On the 1st day of Easter
13. I. Sonata
14. II. Coro (Coro, Soprano, Alto): «Der Himmel lacht! die Erde jubilieret»
15. III. Recitativo (Basso): «Erwünschter Tag! sei, Seele, wieder froh»
16. IV. Aria (Basso): “Fürst des Lebens, starker Streiter»
17. V. Recitativo (Tenore): «So stehe dann, du gottergebne Seele»
18. VI. Aria (Tenore): «Adam muß in uns verwesen»
19. VII. Recitativo (Soprano): «Weil denn das Haupt sein Glied»
20. VIII. Aria (Soprano): «Letzte Stunde, brich herein»
21. IX. Choral (Coro): «So fahr ich hin zu Jesu Christ»
Total 58.44

Лог создания рипа:

Exact Audio Copy V1.0 beta 3 from 29. August 2011
Отчёт EAC об извлечении, выполненном 20. августа 2015, 17:24
Harnoncourt & Leonhardt / Bach - Das Kantatenwerk, Vol. 2 - CD4
Дисковод: Optiarc DVD RW AD-7260S Adapter: 0 ID: 1
Режим чтения : Достоверность
Использование точного потока : Да
Отключение кэша аудио : Да
Использование указателей C2 : Нет
Коррекция смещения при чтении : 48
Способность читать области Lead-in и Lead-out : Нет
Заполнение пропущенных сэмплов тишиной : Да
Удаление блоков с тишиной в начале и конце : Нет
При вычислениях CRC использовались нулевые сэмплы : Да
Интерфейс : Встроенный Win32-интерфейс для Win NT/2000
Выходной формат : Пользовательский кодировщик
Выбранный битрейт : 896 kBit/s
Качество : Высокий
Добавление ID3-тега : Нет
Утилита сжатия : C:\Program Files\FLAC Frontend\tools\flac.exe
Дополнительные параметры : -V -8 -T "Date=%year%" -T "Genre=%genre%" %source%
TOC извлечённого CD
Трек | Старт | Длительность | Начальный сектор | Конечный сектор
---------------------------------------------------------------------
1 | 0:00.00 | 4:28.32 | 0 | 20131
2 | 4:28.32 | 0:48.55 | 20132 | 23786
3 | 5:17.12 | 5:13.33 | 23787 | 47294
4 | 10:30.45 | 0:35.42 | 47295 | 49961
5 | 11:06.12 | 4:40.28 | 49962 | 70989
6 | 15:46.40 | 1:15.12 | 70990 | 76626
7 | 17:01.52 | 0:55.73 | 76627 | 80824
8 | 17:57.50 | 7:00.70 | 80825 | 112394
9 | 24:58.45 | 0:48.67 | 112395 | 116061
10 | 25:47.37 | 5:58.63 | 116062 | 142974
11 | 31:46.25 | 1:14.15 | 142975 | 148539
12 | 33:00.40 | 4:44.40 | 148540 | 169879
13 | 37:45.05 | 3:11.60 | 169880 | 184264
14 | 40:56.65 | 4:07.00 | 184265 | 202789
15 | 45:03.65 | 2:05.27 | 202790 | 212191
16 | 47:09.17 | 2:25.43 | 212192 | 223109
17 | 49:34.60 | 1:08.50 | 223110 | 228259
18 | 50:43.35 | 2:17.72 | 228260 | 238606
19 | 53:01.32 | 0:48.70 | 238607 | 242276
20 | 53:50.27 | 3:49.08 | 242277 | 259459
21 | 57:39.35 | 1:04.02 | 259460 | 264261
Характеристики диапазона извлечения и сообщения об ошибках
Выбранный диапазон
Имя файла D:\EAC\Мои раздачи\Bach - Das Kantatenwerk, Vol. 2 - Harnoncourt, Leonhardt\CD4\Harnoncourt & Leonhardt - Bach - Das Kantatenwerk, Vol. 2 - CD4.wav
Пиковый уровень 95.2 %
Скорость извлечения 4.1 X
Качество диапазона 99.9 %
CRC теста 48B475CC
CRC копии 48B475CC
Копирование... OK
Ошибок не произошло
AccurateRip: сводка
Трек 1 : извлечено точно (доверие 14) [C272B306] (AR v2)
Трек 2 : извлечено точно (доверие 13) [CE1C8E81] (AR v2)
Трек 3 : извлечено точно (доверие 14) [3514AD60] (AR v2)
Трек 4 : извлечено точно (доверие 14) [CCE541F9] (AR v2)
Трек 5 : извлечено точно (доверие 14) [6D98CB69] (AR v2)
Трек 6 : извлечено точно (доверие 14) [B6CA85C6] (AR v2)
Трек 7 : извлечено точно (доверие 14) [ABD54D5E] (AR v2)
Трек 8 : извлечено точно (доверие 14) [AAED2B22] (AR v2)
Трек 9 : извлечено точно (доверие 14) [BBCE2039] (AR v2)
Трек 10 : извлечено точно (доверие 14) [E3D250B1] (AR v2)
Трек 11 : извлечено точно (доверие 14) [6C9BF2E1] (AR v2)
Трек 12 : извлечено точно (доверие 14) [B7A46358] (AR v2)
Трек 13 : извлечено точно (доверие 14) [CB425E55] (AR v2)
Трек 14 : извлечено точно (доверие 12) [9C8CACC6] (AR v2)
Трек 15 : извлечено точно (доверие 14) [749CF72C] (AR v2)
Трек 16 : извлечено точно (доверие 14) [EEAE224B] (AR v2)
Трек 17 : извлечено точно (доверие 14) [6C38DA8B] (AR v2)
Трек 18 : извлечено точно (доверие 14) [C21414D8] (AR v2)
Трек 19 : извлечено точно (доверие 14) [EB51E324] (AR v2)
Трек 20 : извлечено точно (доверие 14) [09952790] (AR v2)
Трек 21 : извлечено точно (доверие 14) [08D7F0F4] (AR v2)
Все треки извлечены точно
Конец отчёта
==== Контрольная сумма отчёта 22C5BEE530B210A20D4761648B5258121305BB37C89CB93FCBF3F19949060F61 ====

CD5:Треклист:

Liebster Jesu, mein Verlangen BWV 32 / ВC A 31
Dominica 1 Post Epiphanias / At the 1st Sunday after Epuphany
01. I. Aria (Soprano): «Liebster Jesu, mein Verlangen»
02. II. Recitativo (Basso): «Was ists, daß du mich gesuchet?»
03. III. Aria (Basso): «Hier, in meines Vaters Stätte»
04. IV. Recitativo (Soprano, Basso): «Ach! heiliger und großer Gott»
05. V. Aria (Duetto: Soprano, Basso): «Nun verschwinden alle Plagen»
06. VI. Choral (Coro): «Mein Gott, öffne mir die Pforten»
Allein zu dir, Herr Jesu Christ BWV 33 / ВC A 127
Dominica 13 Post Trinitatis
07. I. [Coro]: «Allein zu dir, Herr Jesu Christ »
08. II. Recitativo (Basso): «Mein Gott und Richter»
09. III. Aria (Alto): «Wie furchtsam wankten meine Schritte»
10. IV. Recitativo (Tenore): «Mein Gott, verwirf mich nicht»
11. V. Aria (Duetto: Tenore, Basso): «Gott, der du die Liebe heißt»
12. VI. Choral (Coro): «Ehr sei Gott in dem höchsten Thron»
О ewiges Feuer, o Ursprung der Liebe BWV 34 / ВC A 84
Festo Pentecostes / At Whit Sunday
13. I. [Coro]: «О ewiges Feuer, o Ursprung der Liebe»
14. II. Recitativo (Tenore): «Herr! unsre Herzen halten dir dein Wort»
15. III. Aria (Alto): «Wohl euch, ihr auserwählten Seelen»
16. IV. Recitativo (Basso): «Erwählt sich Gott die heilgen Hütten»
17. V. Coro: «Friede über Israel! Dankt den höchsten Wunderhänden»
Total 63.47

Лог создания рипа:

Exact Audio Copy V1.0 beta 3 from 29. August 2011
Отчёт EAC об извлечении, выполненном 21. августа 2015, 0:48
Harnoncourt & Leonhardt / Bach - Das Kantatenwerk, Vol. 2 - CD5
Дисковод: Optiarc DVD RW AD-7260S Adapter: 0 ID: 1
Режим чтения : Достоверность
Использование точного потока : Да
Отключение кэша аудио : Да
Использование указателей C2 : Нет
Коррекция смещения при чтении : 48
Способность читать области Lead-in и Lead-out : Нет
Заполнение пропущенных сэмплов тишиной : Да
Удаление блоков с тишиной в начале и конце : Нет
При вычислениях CRC использовались нулевые сэмплы : Да
Интерфейс : Встроенный Win32-интерфейс для Win NT/2000
Выходной формат : Пользовательский кодировщик
Выбранный битрейт : 896 kBit/s
Качество : Высокий
Добавление ID3-тега : Нет
Утилита сжатия : C:\Program Files\FLAC Frontend\tools\flac.exe
Дополнительные параметры : -V -8 -T "Date=%year%" -T "Genre=%genre%" %source%
TOC извлечённого CD
Трек | Старт | Длительность | Начальный сектор | Конечный сектор
---------------------------------------------------------------------
1 | 0:00.00 | 5:44.65 | 0 | 25864
2 | 5:44.65 | 0:27.52 | 25865 | 27941
3 | 6:12.42 | 7:37.18 | 27942 | 62234
4 | 13:49.60 | 2:50.50 | 62235 | 75034
5 | 16:40.35 | 6:01.47 | 75035 | 102156
6 | 22:42.07 | 1:15.05 | 102157 | 107786
7 | 23:57.12 | 4:53.03 | 107787 | 129764
8 | 28:50.15 | 1:05.55 | 129765 | 134694
9 | 29:55.70 | 8:06.70 | 134695 | 171214
10 | 38:02.65 | 1:10.70 | 171215 | 176534
11 | 39:13.60 | 4:36.35 | 176535 | 197269
12 | 43:50.20 | 1:34.67 | 197270 | 204386
13 | 45:25.12 | 8:03.23 | 204387 | 240634
14 | 53:28.35 | 0:39.00 | 240635 | 243559
15 | 54:07.35 | 6:45.02 | 243560 | 273936
16 | 60:52.37 | 0:29.38 | 273937 | 276149
17 | 61:22.00 | 2:24.50 | 276150 | 286999
Характеристики диапазона извлечения и сообщения об ошибках
Выбранный диапазон
Имя файла D:\EAC\Мои раздачи\Bach - Das Kantatenwerk, Vol. 2 - Harnoncourt, Leonhardt\CD5\Harnoncourt & Leonhardt - Bach - Das Kantatenwerk, Vol. 2 - CD5.wav
Пиковый уровень 98.1 %
Скорость извлечения 4.4 X
Качество диапазона 100.0 %
CRC теста E3A4019B
CRC копии E3A4019B
Копирование... OK
Ошибок не произошло
AccurateRip: сводка
Трек 1 : извлечено точно (доверие 10) [4D5F218F] (AR v2)
Трек 2 : извлечено точно (доверие 10) [6ABA3343] (AR v2)
Трек 3 : извлечено точно (доверие 10) [46A2AC14] (AR v2)
Трек 4 : извлечено точно (доверие 10) [CC56861E] (AR v2)
Трек 5 : извлечено точно (доверие 10) [ECE88427] (AR v2)
Трек 6 : извлечено точно (доверие 10) [F7EFB2F0] (AR v2)
Трек 7 : извлечено точно (доверие 10) [FFB9A70D] (AR v2)
Трек 8 : извлечено точно (доверие 10) [FCA35286] (AR v2)
Трек 9 : извлечено точно (доверие 10) [EAD82915] (AR v2)
Трек 10 : извлечено точно (доверие 10) [049FFBD9] (AR v2)
Трек 11 : извлечено точно (доверие 10) [F1F664E2] (AR v2)
Трек 12 : извлечено точно (доверие 10) [9F8B5188] (AR v2)
Трек 13 : извлечено точно (доверие 10) [024750BA] (AR v2)
Трек 14 : извлечено точно (доверие 10) [C3177A7C] (AR v2)
Трек 15 : извлечено точно (доверие 9) [A5600F43] (AR v2)
Трек 16 : извлечено точно (доверие 10) [F6C6D743] (AR v2)
Трек 17 : извлечено точно (доверие 10) [B6A91BEE] (AR v2)
Все треки извлечены точно
Конец отчёта
==== Контрольная сумма отчёта 9F19147CD2FC84AD294362AFEFF4AC48F2AF1E1E3A03EE979DF56E82658595A6 ====

CD6:Треклист:

Geist und Seele wird verwirret BWV 35 / ВC A125
Dominica 12 Post Trinitatis / At the 12st Sunday after Trinitis
Prima Parte
01. I. Sinfonia
02. II. Aria (Alto): «Geist und Seele wird verwirret»
03. III. Recitativo (Alto):»Ich wundre mich, denn alles, was man sieht»
04. IV. Aria (Alto): «Gott hat alles wohlgemacht»
Seconda Parte
05. V. Sinfonia
06. VI. Recitativo (Alto): «Ach, starker Cott, laß mich doch dieses»
07. VII. Aria (Alto): «Ich wünsche mir, bei Cott zu leben»
Schwingt freudig euch empor BWV 36 / ВC A 36
Dominica 1 Adventus Christi / At the 1st Sunday in Advent
Prima Parte
08. I. Coro: «Schwingt freudig euch empor »
09. II. Choral (Soprano, Alto): «Nun komm, der Heiden Heiland»
10. III. Aria (Tenore): «Die Liebe zieht mit sanften Schritten»
11. IV. Choral (Coro): «Zwingt die Saiten in Cythara»
Seconda Parte
12. V. Aria (Basso): «Willkommen, werter Schatz»
13. VI. Choral (Tenore): «Der du bist dem Vater gleich»
14. VII. Aria (Soprano): «Auch mit gedämpften, schwachen Stimmen»
15. VIII. Choral (Coro): «Lob sei Gott, dem Vater, g'ton»
Total 57.16

Лог создания рипа:

Exact Audio Copy V1.0 beta 3 from 29. August 2011
Отчёт EAC об извлечении, выполненном 21. августа 2015, 14:18
Harnoncourt & Leonhardt / Bach - Das Kantatenwerk, Vol. 2 - CD6
Дисковод: Optiarc DVD RW AD-7260S Adapter: 0 ID: 1
Режим чтения : Достоверность
Использование точного потока : Да
Отключение кэша аудио : Да
Использование указателей C2 : Нет
Коррекция смещения при чтении : 48
Способность читать области Lead-in и Lead-out : Нет
Заполнение пропущенных сэмплов тишиной : Да
Удаление блоков с тишиной в начале и конце : Нет
При вычислениях CRC использовались нулевые сэмплы : Да
Интерфейс : Встроенный Win32-интерфейс для Win NT/2000
Выходной формат : Пользовательский кодировщик
Выбранный битрейт : 896 kBit/s
Качество : Высокий
Добавление ID3-тега : Нет
Утилита сжатия : C:\Program Files\FLAC Frontend\tools\flac.exe
Дополнительные параметры : -V -8 -T "Date=%year%" -T "Genre=%genre%" %source%
TOC извлечённого CD
Трек | Старт | Длительность | Начальный сектор | Конечный сектор
---------------------------------------------------------------------
1 | 0:00.00 | 5:32.72 | 0 | 24971
2 | 5:32.72 | 8:35.35 | 24972 | 63631
3 | 14:08.32 | 1:22.18 | 63632 | 69799
4 | 15:30.50 | 3:17.12 | 69800 | 84586
5 | 18:47.62 | 3:36.43 | 84587 | 100829
6 | 22:24.30 | 1:05.52 | 100830 | 105756
7 | 23:30.07 | 3:38.63 | 105757 | 122169
8 | 27:08.70 | 4:08.15 | 122170 | 140784
9 | 31:17.10 | 3:46.30 | 140785 | 157764
10 | 35:03.40 | 5:40.17 | 157765 | 183281
11 | 40:43.57 | 1:32.70 | 183282 | 190251
12 | 42:16.52 | 4:12.25 | 190252 | 209176
13 | 46:29.02 | 1:52.63 | 209177 | 217639
14 | 48:21.65 | 8:13.70 | 217640 | 254684
15 | 56:35.60 | 0:40.35 | 254685 | 257719
Характеристики диапазона извлечения и сообщения об ошибках
Выбранный диапазон
Имя файла D:\EAC\Мои раздачи\Bach - Das Kantatenwerk, Vol. 2 - Harnoncourt, Leonhardt\CD6\Harnoncourt & Leonhardt - Bach - Das Kantatenwerk, Vol. 2 - CD6.wav
Пиковый уровень 94.2 %
Скорость извлечения 4.1 X
Качество диапазона 100.0 %
CRC теста 9651F378
CRC копии 9651F378
Копирование... OK
Ошибок не произошло
AccurateRip: сводка
Трек 1 отсутствует в базе данных
Трек 2 отсутствует в базе данных
Трек 3 отсутствует в базе данных
Трек 4 отсутствует в базе данных
Трек 5 отсутствует в базе данных
Трек 6 отсутствует в базе данных
Трек 7 отсутствует в базе данных
Трек 8 отсутствует в базе данных
Трек 9 отсутствует в базе данных
Трек 10 отсутствует в базе данных
Трек 11 отсутствует в базе данных
Трек 12 отсутствует в базе данных
Трек 13 отсутствует в базе данных
Трек 14 отсутствует в базе данных
Трек 15 отсутствует в базе данных
Ни одного трека нет в базе AccurateRip
Конец отчёта
==== Контрольная сумма отчёта EA4EBD2F036FF865C0A1F832DB2A8468FB9E321FD295A0F820F53A11813A8915 ====

Исполнители:

Paul Esswood, Alto
Kurt Equiluz, Tenor
Max Van Egmond, Bass
Wiener Sangerknaben
Chorus Viennensis
Chorus Master: Hans Cillesberger
Concentus Musicus Wien
Nikolaus Harnoncourt (BWV 20)
Soloist Of The Wiener Sangerknaben, Soprano
Paul Esswood, Alto
Kurt Equiluz, Tenor
Walker Wyatt, Bass
Wiener Sangerknaben
Chorus Viennensis
Chorus Master: Hans Gillesberger
Concentus Musicus Wien
Nikolaus Harnoncourt (BWV 21)
Paul Esswood, Alto
Kurt Equiluz, Tenor
Max Van Egmond, Bass
Tolzer Knabenchor
Chorus Master: Gerhard Schmidt-Gaden
King's College Choir Cambridge
Chorus Master: David Willcocks
Leonhardt-Consort
Gustav Leonhardt (BWV 22)
Walter Gampert (Soloist Of The Tolzer Knabenchor), Soprano
Paul Esswood, Alto
Marius Van Altena, Tenor
Tolzer Knabenchor
Chorus Master: Gerhard Schmidt-Gaden
King's College Choir Cambridge
Chorus Master: David Willcocks
Leonhardt-Consort
Gustav Leonhardt (BWV 23)
Soloist Of The Wiener Sangerknaben, Soprano
Paul Esswood, Alto
Kurt Equiluz, Tenor
Max Van Egmond, Bass
Wiener Sangerknaben
Chorus Viennensis
Chorus Master: Hans Cillesberger
Concentus Musicus Wien
Nikolaus Harnoncourt (BWV 24, 25, 29, 30)
Soloist Of The Wiener Sangerknaben, Soprano
Paul Esswood, Alto
Kurt Equiluz, Tenor
Siegmund Nimsgern, Bass
Wiener Sangerknaben
Chorus Viennensis
Chorus Master: Hans Gillesberger
Concentus Musicus Wien
Nikolaus Harnoncourt (BWV 26, 28)
Soloist Of The Wiener Sangerknaben, Soprano
Paul Esswood & Soloist Of The Wiener Sangerknaben, Alto
Kurt Equiluz, Tenor
Siegmund Nimsgern, Bass
Wiener Sangerknaben
Chorus Viennensis
Chorus Master: Hans Gillesberger
Concentus Musicus Wien
Nikolaus Harnoncourt (BWV 27)
Soloists Of The Wiener Sangerknaben, Soprano, Alto
Kurt Equiluz, Tenor
Siegmund Nimsgern, Bass
Wiener Sangerknaben
Chorus Viennensis
Chorus Master: Hans Cillesberger
Concentus Musicus Wien
Nikolaus Harnoncourt (BWV 31)
Walter Gampert (Soloist Of The Tolzer Knabenchor), Soprano
Max Van Egmond, Bass
Knabenchor Hannover
Chorus Master: Heinz Hennig
Leonhardt-Consort
Gustav Leonhardt (BWV 32)
Rene Jacobs, Alto
Marius Van Altena, Tenor
Max Van Egmond, Bass
Knabenchor Hannover
Chorus Master: Heinz Hennig
Leonhardt-Consort
Gustav Leonhardt (BWV 33)
Paul Esswood, Alto
Kurt Equiluz, Tenor
Siegmund Nimsgern, Basso
Wiener Sangerknaben
Chorus Viennensis
Chorus Master: Hans Gillesberger
Concentus Musicus Wien
Nikolaus Harnoncourt (BWV 34)
Soloist Of The Wiener Sangerknaben, Soprano
Paul Esswood, Alto
Kurt Equiluz, Tenor
Ruud Van Der Meer, Bass
Wiener Sangerknaben
Chorus Viennensis
Chorus Master: Hans Gillesberger
Concentus Musicus Wien
Nikolaus Harnoncourt (BWV 36)
Николаус Арнонкур и Густав Леонхард были пионерами музыкального движения - аутентизма, возникшего среди исполнителей классической музыки в 70-х и 80-х годах 20-го столетия. Музыканты, используя инструменты соответствующего исторического периода, попытались вернуться к истокам, чтобы, насколько это возможно, воссоздать первоначальные намерения композитора. Непреходящий по значению результат этих усилий - полный сборник церковных кантат Баха, запись которого началась в 1971-м и была закончена в 1988-м годах. Титанический объём этого труда послужил ориентиром для молодых музыкантов, ищущих более полного понимания музыки Баха, и всегда будет рассматриваться как один из выдающихся проектов в истории звукозаписи.
Из статьи в «Нью-Йорк Таймс», в вольном переводе.
[teatrix.ru].t22027.torrent 
Торрент: Зарегистрирован [ 2016-03-20 12:46 ] · C0C9B6DA8C7521B9508578FA0F7801D508691648

Скачать .torrent

Скачать

54 KB

Статус: проверено
Скачан: 0 раз
Размер: 8.5 GB
terms.php



Быстрый ответ

Имя:

      
Для отправки сообщений необходимо включить JavaScript
Показать сообщения:    

Текущее время: 03-Дек 12:38

Часовой пояс: UTC + 3


Вы можете начинать темы
Вы можете отвечать на сообщения
Вы не можете редактировать свои сообщения
Вы не можете удалять свои сообщения
Вы не можете голосовать в опросах
Вы не можете прикреплять файлы к сообщениям
Вы можете скачивать файлы