(Orchestral) Прокофьев - Симфонии №№5 и 6 | Wagner - »Die fliegende Hollander«, »Rienzi« overturen | Bach - Passacaglia und Fugue c-moll etc. (Leopold Stokowski) - 2005, FLAC (image+.cue) lossless


 

[Цитировать]

Sergei Prokofiev
Symphony No.6 in E flat minor, op.111
Symphony No.5 in B flat major, op.100

Leopold Stokowski
--- Жанр: Orchestral
Страна-производитель диска: Italy
Год издания диска: 2005
Издатель (лейбл): Memories Reverence
Дата записи: 1947-58
Аудиокодек: FLAC
Тип рипа: image+.cue
Битрейт аудио: lossless
Продолжительность: 2:00'39''
Источник: собственный рип
Наличие сканов в содержимом раздачи: да
Треклист:

CD1

[01] S.Prokofiev - Symphony No.6: I. Allegro moderato
[02] II. Largo
[03] III. Vivace
[04] S.Prokofiev - Symphony No.5: I. Andante
[05] II. Allegro moderato
[06] III. Adagio
[07] IV. Allegro giocoso

Лог создания рипа

Exact Audio Copy V1.0 beta 4 from 7. December 2014
EAC extraction logfile from 17. August 2015, 19:39
Leopold Stokowski / Prokofiev, Wagner, Bach CD1
Used drive : PHILIPS PCRW804 Adapter: 1 ID: 1
Read mode : Secure
Utilize accurate stream : Yes
Defeat audio cache : Yes
Make use of C2 pointers : No
Read offset correction : -436
Overread into Lead-In and Lead-Out : No
Fill up missing offset samples with silence : Yes
Delete leading and trailing silent blocks : No
Null samples used in CRC calculations : Yes
Used interface : Native Win32 interface for Win NT & 2000
Used output format : User Defined Encoder
Selected bitrate : 1024 kBit/s
Quality : High
Add ID3 tag : No
Command line compressor : C:\Program Files (x86)\FLAC\flac.exe
Additional command line options : -T "COMMENT=rip by el coronel" -8 -V %source%
TOC of the extracted CD
Track | Start | Length | Start sector | End sector
---------------------------------------------------------
1 | 0:00.00 | 12:09.23 | 0 | 54697
2 | 12:09.23 | 12:55.20 | 54698 | 112842
3 | 25:04.43 | 11:08.60 | 112843 | 163002
4 | 36:13.28 | 11:54.05 | 163003 | 216557
5 | 48:07.33 | 7:56.65 | 216558 | 252322
6 | 56:04.23 | 11:53.63 | 252323 | 305860
7 | 67:58.11 | 8:59.30 | 305861 | 346315
Range status and errors
Selected range
Filename F:\Music\Prokofiev 5 6 Stokowski\CD1.wav
Peak level 100.0 %
Extraction speed 2.2 X
Range quality 100.0 %
Test CRC FF43BD51
Copy CRC FF43BD51
Copy OK
No errors occurred
AccurateRip summary
Track 1 accurately ripped (confidence 2) [1F2C536D] (AR v2)
Track 2 accurately ripped (confidence 2) [E2F07FB2] (AR v2)
Track 3 accurately ripped (confidence 2) [F9469414] (AR v2)
Track 4 accurately ripped (confidence 2) [9426F988] (AR v2)
Track 5 accurately ripped (confidence 2) [C4EE147A] (AR v2)
Track 6 accurately ripped (confidence 2) [5AAFF5C7] (AR v2)
Track 7 accurately ripped (confidence 2) [4C76AD19] (AR v2)
All tracks accurately ripped
End of status report
---- CUETools DB Plugin V2.1.4
[CTDB TOCID: wXar.5VlNFQSULqhMwIwHzv8Hpo-] disk not present in database
Submit result: wXar.5VlNFQSULqhMwIwHzv8Hpo- has been uploaded
==== Log checksum BEDB4DDA2BFF19BCE34F17277806316858CEE38678536D7ACC0C36FE2AD8DA60 ====

Содержание индексной карты (.CUE)

REM GENRE Classical
REM DATE 2011
REM DISCID 61120907
REM COMMENT "ExactAudioCopy v1.0b3"
PERFORMER "Leopold Stokowski"
TITLE "Prokofiev, Wagner, Bach CD1"
FILE "CD1.flac" WAVE
TRACK 01 AUDIO
TITLE "S.Prokofiev - Symphony No.6: I. Allegro moderato"
PERFORMER "New York Philharmonic - Leopold Stokowski "
FLAGS DCP
INDEX 01 00:00:00
TRACK 02 AUDIO
TITLE "II. Largo"
PERFORMER "New York Philharmonic - Leopold Stokowski "
FLAGS DCP
INDEX 01 12:09:23
TRACK 03 AUDIO
TITLE "III. Vivace"
PERFORMER "New York Philharmonic - Leopold Stokowski "
FLAGS DCP
INDEX 01 25:04:43
TRACK 04 AUDIO
TITLE "S.Prokofiev - Symphony No.5: I. Andante"
PERFORMER "Moscow Radio Symphony Orchestra - Leopold Stokowski "
FLAGS DCP
INDEX 01 36:13:28
TRACK 05 AUDIO
TITLE "II. Allegro moderato"
PERFORMER "Moscow Radio Symphony Orchestra - Leopold Stokowski "
FLAGS DCP
INDEX 01 48:07:33
TRACK 06 AUDIO
TITLE "III. Adagio"
PERFORMER "Moscow Radio Symphony Orchestra - Leopold Stokowski "
FLAGS DCP
INDEX 01 56:04:23
TRACK 07 AUDIO
TITLE "IV. Allegro giocoso"
PERFORMER "Moscow Radio Symphony Orchestra - Leopold Stokowski "
FLAGS DCP
INDEX 01 67:58:11

CD2

[01] R.Wagner - »Die fliegende Holländer« Overtüre
[02] »Rienzi« Overtüre
[03] J.S.Bach - Passacaglia und Fugue c-moll
[04] »Christ lag in Todesbanden«
[05] »Ich ruf zu dir, Herr Jesu Christ«
[06] »Wir glauben all'an einen Gott'«

Лог создания рипа

Exact Audio Copy V1.0 beta 4 from 7. December 2014
EAC extraction logfile from 17. August 2015, 20:35
Unknown Artist / Unknown Title
Used drive : PHILIPS PCRW804 Adapter: 1 ID: 1
Read mode : Secure
Utilize accurate stream : Yes
Defeat audio cache : Yes
Make use of C2 pointers : No
Read offset correction : -436
Overread into Lead-In and Lead-Out : No
Fill up missing offset samples with silence : Yes
Delete leading and trailing silent blocks : No
Null samples used in CRC calculations : Yes
Used interface : Native Win32 interface for Win NT & 2000
Used output format : User Defined Encoder
Selected bitrate : 1024 kBit/s
Quality : High
Add ID3 tag : No
Command line compressor : C:\Program Files (x86)\FLAC\flac.exe
Additional command line options : -T "COMMENT=rip by el coronel" -8 -V %source%
TOC of the extracted CD
Track | Start | Length | Start sector | End sector
---------------------------------------------------------
1 | 0:00.00 | 9:41.51 | 0 | 43625
2 | 9:41.51 | 10:40.20 | 43626 | 91645
3 | 20:21.71 | 12:41.22 | 91646 | 148742
4 | 33:03.18 | 4:02.55 | 148743 | 166947
5 | 37:05.73 | 3:29.49 | 166948 | 182671
6 | 40:35.47 | 3:06.13 | 182672 | 196634
Range status and errors
Selected range
Filename F:\Music\Prokofiev 5 6 Stokowski\CD2.wav
Peak level 100.0 %
Extraction speed 1.8 X
Range quality 99.9 %
Test CRC 6F36FF89
Copy CRC 6F36FF89
Copy OK
No errors occurred
AccurateRip summary
Track 1 accurately ripped (confidence 2) [4D52F07A] (AR v2)
Track 2 accurately ripped (confidence 2) [47A270B5] (AR v2)
Track 3 accurately ripped (confidence 2) [4E306218] (AR v2)
Track 4 accurately ripped (confidence 2) [E12538EB] (AR v2)
Track 5 accurately ripped (confidence 2) [C46331C0] (AR v2)
Track 6 accurately ripped (confidence 2) [E2AF586F] (AR v2)
All tracks accurately ripped
End of status report
---- CUETools DB Plugin V2.1.4
[CTDB TOCID: dLnwFZM0IbOwPdnIQ5zCtVcBm3k-] disk not present in database
Submit result: dLnwFZM0IbOwPdnIQ5zCtVcBm3k- has been uploaded
==== Log checksum A07F3AF37523FDA92771BDC5A7C8143DA512DD7781AFC4E88FC95934C62F8107 ====

Содержание индексной карты (.CUE)

REM GENRE Classical
REM DATE 2011
REM DISCID 4E0A3D06
REM COMMENT "ExactAudioCopy v1.0b3"
PERFORMER "Leopold Stokowski"
TITLE "Prokofiev, Wagner, Bach CD2"
FILE "CD2.flac" WAVE
TRACK 01 AUDIO
TITLE "R.Wagner - Die fliegende Hollander Overture"
PERFORMER "New York Philharmonic Orchestra - Leopold Stokowski"
FLAGS DCP
INDEX 01 00:00:00
TRACK 02 AUDIO
TITLE "R.Wagner - Rienzi Overture"
PERFORMER "New York Philharmonic Orchestra - Leopold Stokowski"
FLAGS DCP
INDEX 01 09:41:51
TRACK 03 AUDIO
TITLE "J.S.Bach - Passacaglia und Fugue c-moll"
PERFORMER "New York Philharmonic Orchestra - Leopold Stokowski"
FLAGS DCP
INDEX 01 20:21:71
TRACK 04 AUDIO
TITLE "J.S.Bach - Christ lag in Todesbanden"
PERFORMER "New York Philharmonic Orchestra - Leopold Stokowski"
FLAGS DCP
INDEX 01 33:03:18
TRACK 05 AUDIO
TITLE "J.S.Bach - Ich ruf zu dir, Herr Jesu Christ"
PERFORMER "New York Philharmonic Orchestra - Leopold Stokowski"
FLAGS DCP
INDEX 01 37:05:73
TRACK 06 AUDIO
TITLE "J.S.Bach - Wir glauben all'an einen Gott'"
PERFORMER "New York Philharmonic Orchestra - Leopold Stokowski"
FLAGS DCP
INDEX 01 40:35:47
Исполнители:
New York Philharmonic Orchestra
Симфонический Оркестр Всесоюзного Радио
[CD1, 4-7]
Leopold Stokowski



Показать сообщения:    

Текущее время: 10-Дек 02:12

Часовой пояс: UTC + 3


Вы не можете начинать темы
Вы не можете отвечать на сообщения
Вы не можете редактировать свои сообщения
Вы не можете удалять свои сообщения
Вы не можете голосовать в опросах
Вы не можете прикреплять файлы к сообщениям
Вы не можете скачивать файлы