(Opera) Richard Strauss - Salome / Рихард Штраус - Саломея (Herbert von Karajan; Wiener Philharmoniker; Hildegard Behrens, Jose van Dam, Karl-Walter Böhm, Agnes Baltsa, Wieslaw Ochman), 1977- Studio Recording / 1999,APE(image+.cue),lossless


 

[Цитировать]

Richard Strauss - Salome / Рихард Штраус - Саломея (Herbert von Karajan; Wiener Philharmoniker; Hildegard Behrens, José van Dam, Karl-Walter Böhm, Agnes Baltsa, Wieslaw Ochman)
Жанр: Opera
Страна-производитель диска: CША
Год издания диска: 1999
Издатель (лейбл): EMI Classics
Дата записи: 1977
Аудиокодек: APE
Тип рипа: image+.cue
Битрейт аудио: lossless
Продолжительность: 105:17
Источник: релизер (aficionado)
Наличие сканов в содержимом раздачи: да
Исполнители:
Salome - Hildegard Behrens,
Jochanaan - José van Dam,
Herodes - Karl-Walter Böhm,
Herodias - Agnes Baltsa,
Narraboth - Wieslaw Ochman,
Ein Page - Helgä Angervo,
Erster Nazarener - Jules Bastin,
Zweiter Nazarener - Dieter Ellenbeck,
Erster Soldat - Gerd Nienstedt,
Zweiter Soldat - Kurt Rydl,
Ein Cappadocier - Helge von Bömches,
Ein Sklave - Horst Nitsche,
Erster Jude - Heinz Zednik,
Zweiter Jude - David Knutson,
Dritter Jude - Gerhard Unger,
Vierter Jude - Martin Vantin,
Fünfter Jude - Erich Kunz.
Conductor - Herbert von Karajan,
Wiener Philharmoniker.
Studio recording, made on 9-11, 13, 16-18, 20 June, 1977 & 2 May, 1978, at Sofiensaal, Vienna, Austria.

Лог создания рипаЛог создания рипа CD 1

Exact Audio Copy V0.99 prebeta 5 from 4. May 2009
Archivo Log de extracciones desde 10. Noviembre 2009, 12:55
Karajan - VPO / Strauss - Salome
Usar unidad : HL-DT-STDVD-RW_GSA-H11N Adapter: 5 ID: 0
Modo de Lectura : Seguro
Utilizar Corriente Exacta : Sн
Descartar Audio cachй : Sн
Utilizar los punteros C2 : No
Correcciуn de Desplazamiento de Lectura : 667
Sobreleer tanto en Lead-In como en Lead-Out : No
Rellenar las muestras faltantes con silencios : Sн
Eliminar silencios inicial y final : No
Se han usado muestras nulas en los cбlculos CRC : Sн
Interfaz usada : Interfaz propio de Win32 para Windowns NT y 2000
Formato de Salida utilizado : Rutinas WAV Internas
Formato de Muestreo : 44.100 Hz; 16 Bit; Estйreo
TOC del CD extraido
Pista | Inicio | Duraciуn | Sector inicial | Sector final
-------------------------------------------------------------
1 | 0:00.00 | 2:55.57 | 0 | 13181
2 | 2:55.57 | 2:48.20 | 13182 | 25801
3 | 5:44.02 | 1:50.10 | 25802 | 34061
4 | 7:34.12 | 1:39.00 | 34062 | 41486
5 | 9:13.12 | 2:29.18 | 41487 | 52679
6 | 11:42.30 | 4:19.70 | 52680 | 72174
7 | 16:02.25 | 9:38.30 | 72175 | 115554
8 | 25:40.55 | 8:48.72 | 115555 | 155226
9 | 34:29.52 | 8:27.33 | 155227 | 193284
10 | 42:57.10 | 2:37.67 | 193285 | 205126
11 | 45:35.02 | 1:27.20 | 205127 | 211671
12 | 47:02.22 | 2:49.45 | 211672 | 224391
13 | 49:51.67 | 0:53.70 | 224392 | 228436
14 | 50:45.62 | 2:59.03 | 228437 | 241864
15 | 53:44.65 | 3:02.52 | 241865 | 255566
Gama de estados y errores
Seleccionar gama
Nombre de Archivo D:\Musica\Compartidos\CD1.wav
Nivel Pico 87.4 %
Gama de Calidad 99.9 %
Copiar CRC 6E2AAAD7
Copia OK
Sin Errores
Resumen AccurateRip
Pista 1 extraido de modo preciso (nivel de confianza 9) [FCDC8354]
Pista 2 extraido de modo preciso (nivel de confianza 10) [80459ADF]
Pista 3 extraido de modo preciso (nivel de confianza 10) [CE878E61]
Pista 4 extraido de modo preciso (nivel de confianza 10) [FE8C891F]
Pista 5 extraido de modo preciso (nivel de confianza 10) [9788234F]
Pista 6 extraido de modo preciso (nivel de confianza 10) [94C58AE4]
Pista 7 extraido de modo preciso (nivel de confianza 10) [FA01140D]
Pista 8 extraido de modo preciso (nivel de confianza 10) [17A3C184]
Pista 9 extraido de modo preciso (nivel de confianza 10) [70DA8D50]
Pista 10 extraido de modo preciso (nivel de confianza 10) [75D05D75]
Pista 11 extraido de modo preciso (nivel de confianza 10) [B2548089]
Pista 12 extraido de modo preciso (nivel de confianza 10) [E2B41459]
Pista 13 extraido de modo preciso (nivel de confianza 10) [D7C3A5DB]
Pista 14 extraido de modo preciso (nivel de confianza 10) [64DBC348]
Pista 15 extraido de modo preciso (nivel de confianza 10) [29ADAE61]
Todas las pistas extraidas de modo preciso
Final del Informe

Лог создания рипа CD 2

Exact Audio Copy V0.99 prebeta 5 from 4. May 2009
Archivo Log de extracciones desde 10. Noviembre 2009, 13:00
Richard Strauss / Salome - Karajan
Usar unidad : HL-DT-STDVD-RW_GSA-H11N Adapter: 5 ID: 0
Modo de Lectura : Seguro
Utilizar Corriente Exacta : Sн
Descartar Audio cachй : Sн
Utilizar los punteros C2 : No
Correcciуn de Desplazamiento de Lectura : 667
Sobreleer tanto en Lead-In como en Lead-Out : No
Rellenar las muestras faltantes con silencios : Sн
Eliminar silencios inicial y final : No
Se han usado muestras nulas en los cбlculos CRC : Sн
Interfaz usada : Interfaz propio de Win32 para Windowns NT y 2000
Formato de Salida utilizado : Rutinas WAV Internas
Formato de Muestreo : 44.100 Hz; 16 Bit; Estйreo
TOC del CD extraido
Pista | Inicio | Duraciуn | Sector inicial | Sector final
-------------------------------------------------------------
1 | 0:00.00 | 2:23.62 | 0 | 10786
2 | 2:23.62 | 4:26.65 | 10787 | 30801
3 | 6:50.52 | 9:23.40 | 30802 | 73066
4 | 16:14.17 | 3:50.28 | 73067 | 90344
5 | 20:04.45 | 3:16.32 | 90345 | 105076
6 | 23:21.02 | 3:33.63 | 105077 | 121114
7 | 26:54.65 | 1:41.00 | 121115 | 128689
8 | 28:35.65 | 2:08.30 | 128690 | 138319
9 | 30:44.20 | 12:26.12 | 138320 | 194281
10 | 43:10.32 | 1:06.65 | 194282 | 199296
11 | 44:17.22 | 4:24.43 | 199297 | 219139
Gama de estados y errores
Seleccionar gama
Nombre de Archivo D:\Musica\Compartidos\CD2.wav
Nivel Pico 87.4 %
Gama de Calidad 100.0 %
Copiar CRC C9CBEACA
Copia OK
Sin Errores
Resumen AccurateRip
Pista 1 extraido de modo preciso (nivel de confianza 10) [D9134E40]
Pista 2 extraido de modo preciso (nivel de confianza 10) [DD3C2851]
Pista 3 extraido de modo preciso (nivel de confianza 10) [A97131F6]
Pista 4 extraido de modo preciso (nivel de confianza 10) [6D104347]
Pista 5 extraido de modo preciso (nivel de confianza 10) [BE3ABC30]
Pista 6 extraido de modo preciso (nivel de confianza 10) [8B41F159]
Pista 7 extraido de modo preciso (nivel de confianza 10) [A0D5333B]
Pista 8 extraido de modo preciso (nivel de confianza 10) [6210D8CB]
Pista 9 extraido de modo preciso (nivel de confianza 10) [CF98C6BB]
Pista 10 extraido de modo preciso (nivel de confianza 10) [C34AB8F4]
Pista 11 extraido de modo preciso (nivel de confianza 10) [29C1C526]
Todas las pistas extraidas de modo preciso
Final del Informe

Содержание индексной карты (.CUE)Содержание индексной карты (.CUE) CD 1

REM GENRE Opera
REM DATE 1978
REM DISCID DC0D4F0F
REM COMMENT "ExactAudioCopy v0.99pb5"
PERFORMER "Karajan - VPO"
TITLE "Strauss - Salome"
FILE "Str.Kar.Sal1.ape" WAVE
TRACK 01 AUDIO
TITLE "Wie schцn ist die Prinzessin Salome heute nacht! - Quй bella estб la princesa..."
PERFORMER "Karajan - VPO"
INDEX 01 00:00:00
TRACK 02 AUDIO
TITLE "Nach mir wird einer kommen - Despuйs de mн vendrб otro"
PERFORMER "Karajan - VPO"
INDEX 01 02:55:57
TRACK 03 AUDIO
TITLE "Ich will nicht bleiben - No quiero quedarme!"
PERFORMER "Karajan - VPO"
INDEX 01 05:44:02
TRACK 04 AUDIO
TITLE "Siehe, der Herr ist gekommen - Mirad, he aquн al Seсor"
PERFORMER "Karajan - VPO"
INDEX 01 07:34:12
TRACK 05 AUDIO
TITLE "Jauchze nicht, du Land Palдstina - No te regocijes, tierra de Palestina"
PERFORMER "Karajan - VPO"
INDEX 01 09:13:12
TRACK 06 AUDIO
TITLE "Du wirst das fьr mich tun - Vas a hacerlo por mн?"
PERFORMER "Karajan - VPO"
INDEX 01 11:42:30
TRACK 07 AUDIO
TITLE "Wo ist er, dessen Sьndenbecher jetzt voll ist? - Dуnde estб aquel cuya copa r..."
PERFORMER "Karajan - VPO"
INDEX 01 16:02:25
TRACK 08 AUDIO
TITLE "Jochanaan! Ich bin verliebt in deinen Leib - Estoy enamorada de tu cuerpo"
PERFORMER "Karajan - VPO"
INDEX 01 25:40:55
TRACK 09 AUDIO
TITLE "Wird dir nicht bange, Tochter der Herodias? - No hay nada que te asuste, hija..."
PERFORMER "Karajan - VPO"
INDEX 01 34:29:52
TRACK 10 AUDIO
TITLE "Wo ist Salome? Wo ist die Prinzessin? - Dуnde estб Salomй?"
PERFORMER "Karajan - VPO"
INDEX 01 42:57:10
TRACK 11 AUDIO
TITLE "Es ist kalt hier - Hace frнo aquн"
PERFORMER "Karajan - VPO"
INDEX 01 45:35:02
TRACK 12 AUDIO
TITLE "Salome, komm trink Wein mit mir - Salomй, ven y bebe conmigo"
PERFORMER "Karajan - VPO"
INDEX 01 47:02:22
TRACK 13 AUDIO
TITLE "Sieh, die Zeit ist gekommen - Mirad, la hora ha llegado"
PERFORMER "Karajan - VPO"
INDEX 01 49:51:67
TRACK 14 AUDIO
TITLE "Wahrhaftig, Herr, es wдre besser - En verdad, serнa mejor"
PERFORMER "Karajan - VPO"
INDEX 01 50:45:62
TRACK 15 AUDIO
TITLE "Siehe, der Tag ist nahe - Mirad, estб cerca el dнa"
PERFORMER "Karajan - VPO"
INDEX 01 53:44:65

Содержание индексной карты (.CUE) CD 2

REM GENRE Opera
REM DATE 1978
REM DISCID 930B690B
REM COMMENT "ExactAudioCopy v0.99pb5"
PERFORMER "Richard Strauss"
TITLE "Salome - Karajan"
FILE "Str.Kar.Sal2.ape" WAVE
TRACK 01 AUDIO
TITLE "Eine Menge Menschen wird sich gegen sie sammeln"
PERFORMER "Richard Strauss"
INDEX 01 00:00:00
TRACK 02 AUDIO
TITLE "Tanz fьr mich, Salome"
PERFORMER "Richard Strauss"
INDEX 01 02:23:62
TRACK 03 AUDIO
TITLE "Tanz der sieben Schleier"
PERFORMER "Richard Strauss"
INDEX 01 06:50:52
TRACK 04 AUDIO
TITLE "Ah! Herrlich! Wundervoll! Wundervoll!"
PERFORMER "Richard Strauss"
INDEX 01 16:14:17
TRACK 05 AUDIO
TITLE "Still, sprich nicht zu mir!"
PERFORMER "Richard Strauss"
INDEX 01 20:04:45
TRACK 06 AUDIO
TITLE "Salome, bedenk, was du tun willst"
PERFORMER "Richard Strauss"
INDEX 01 23:21:02
TRACK 07 AUDIO
TITLE "Wer hat meinen Ring genommen?"
PERFORMER "Richard Strauss"
INDEX 01 26:54:65
TRACK 08 AUDIO
TITLE "Es ist kein Laut zu vernehmen"
PERFORMER "Richard Strauss"
INDEX 01 28:35:65
TRACK 09 AUDIO
TITLE "Ah! Du wolltest mich nicht deinen Mund kьssen lassen"
PERFORMER "Richard Strauss"
INDEX 01 30:44:20
TRACK 10 AUDIO
TITLE "Sie ist ein Ungeheuer, deine Tochter"
PERFORMER "Richard Strauss"
INDEX 01 43:10:32
TRACK 11 AUDIO
TITLE "Ah! Ich habe deinen Mund gekьsst, Jochanaan"
PERFORMER "Richard Strauss"
INDEX 01 44:17:22

Треклист

Disc 1:
1. Wie schön ist die Prinzessin Salome heute Nacht!
2. Nach mir wird einer kommen
3. Ich will nicht bleiben
4. Siehe, der Herr ist gekommen
5. Jauchze nicht, du Land Palästina
6. Du wirst das für mich tun
7. Wo ist er, dessen Sündenbecher jetzt voll ist?
8. Jochanaan! Ich bin verliebt in deinen Leib
9. Wird dir nicht bange, Tochter der Herodias?
10. Wo ist Salome? Wo ist die Prinzessin?
11. Es ist kalt hier. Es weht ein Wind
12. Salome, komm, trink Wein mit mir
13. Sieh, die Zeit ist gekommen
14. Wahrhaftig, Herr es wäre besser
15. Siehe, der Tag is nahe, der Tag des Herrn
Disc 2:
1. Eine Menge Menschen wird sich gegen sie sammeln
2. Tanz für mich, Salome
3. Tanz der Sieben Schleier/Dance of the Seven Veils
4. Ah! Herrlich! Wundervoll!
5. Still, sprich nicht zu mir!
6. Salome, bedenk, was du tun willst
7. Wer hat meinen Ring genommen?
8. Es ist kein Laut zu vernehmen
9. Ah, du wolltest mich nicht deinen Mund Küssen lassen
10. Sie ist ein Ungeheuer, deine Tochter
11. Ah! Ich habe deinen Mund geküsst



Показать сообщения:    

Текущее время: 07-Дек 13:40

Часовой пояс: UTC + 3


Вы не можете начинать темы
Вы не можете отвечать на сообщения
Вы не можете редактировать свои сообщения
Вы не можете удалять свои сообщения
Вы не можете голосовать в опросах
Вы не можете прикреплять файлы к сообщениям
Вы не можете скачивать файлы