(Opera) Richard Strauss - Salome / Рихард Штраус - Саломея (Giuseppe Sinopoli; Cheryl Studer, Bryn Terfel, Horst Hiestermann, Leonie Rysanek, Clemens Bieber, Warren Mok), 1990 - Studio Recording / 1991, APE (image+.cue), lossless


 

[Цитировать]

Richard Strauss - Salome / Рихард Штраус - Саломея (Giuseppe Sinopoli; Cheryl Studer, Bryn Terfel, Horst Hiestermann, Leonie Rysanek, Clemens Bieber, Warren Mok)
Жанр: Opera
Страна-производитель диска: Германия
Год издания диска: 1991
Издатель (лейбл): Deutsche Grammophon
Дата записи: 1990
Аудиокодек: APE
Тип рипа: image+.cue
Битрейт аудио: lossless
Продолжительность: 101:37
Источник: релизер (aficionado)
Исполнители:
Salome - Cheryl Studer,
Jochanaan - Bryn Terfel,
Herodes - Horst Hiestermann,
Herodias - Leonie Rysanek,
Narraboth - Clemens Bieber,
Ein Page - Marianne Rørholm,
Erster Nazarener - Friedrich Molsberger,
Zweiter Nazarener - Ralf Lukas,
Erster Soldat - William Murray,
Zweiter Soldat - Bengt Rundgren,
Ein Cappadocier - Klaus Lang,
Ein Sklave - Aimée Willis,
Erster Jude - Uwe Peper,
Zweiter Jude - Karl-Ernst Mercker,
Dritter Jude - Peter Maus,
Vierter Jude - Warren Mok,
Fünfter Jude - Manfred Röhrl.
Conductor - Giuseppe Sinopoli,
Orchestra of Deutsche Oper Berlin.
Studio Recording, made in Jesus-Christus Kirhe, Berlin, December 1990.

Лог создания рипаЛог создания рипа CD 1

Exact Audio Copy V0.99 prebeta 5 from 4. May 2009
Archivo Log de extracciones desde 9. Noviembre 2009, 8:20
Sinopoli; Deutschen Oper Berlin / Strauss, R.: Salome
Usar unidad : HL-DT-STDVD-ROM GDR8164B Adapter: 5 ID: 1
Modo de Lectura : Seguro
Utilizar Corriente Exacta : Sн
Descartar Audio cachй : Sн
Utilizar los punteros C2 : No
Correcciуn de Desplazamiento de Lectura : 102
Sobreleer tanto en Lead-In como en Lead-Out : No
Rellenar las muestras faltantes con silencios : Sн
Eliminar silencios inicial y final : No
Se han usado muestras nulas en los cбlculos CRC : Sн
Interfaz usada : Interfaz propio de Win32 para Windowns NT y 2000
Formato de Salida utilizado : Rutinas WAV Internas
Formato de Muestreo : 44.100 Hz; 16 Bit; Estйreo
TOC del CD extraido
Pista | Inicio | Duraciуn | Sector inicial | Sector final
-------------------------------------------------------------
1 | 0:00.33 | 2:42.55 | 33 | 12237
2 | 2:43.13 | 2:27.65 | 12238 | 23327
3 | 5:11.03 | 1:41.52 | 23328 | 30954
4 | 6:52.55 | 1:36.28 | 30955 | 38182
5 | 8:29.08 | 4:13.10 | 38183 | 57167
6 | 12:42.18 | 2:18.40 | 57168 | 67557
7 | 15:00.58 | 4:24.30 | 67558 | 87387
8 | 19:25.13 | 2:02.37 | 87388 | 96574
9 | 21:27.50 | 2:33.10 | 96575 | 108059
10 | 24:00.60 | 2:17.53 | 108060 | 118387
11 | 26:18.38 | 2:27.20 | 118388 | 129432
12 | 28:45.58 | 2:43.57 | 129433 | 141714
13 | 31:29.40 | 1:12.15 | 141715 | 147129
14 | 32:41.55 | 2:57.15 | 147130 | 160419
15 | 35:38.70 | 0:59.45 | 160420 | 164889
16 | 36:38.40 | 5:08.33 | 164890 | 188022
17 | 41:46.73 | 3:28.20 | 188023 | 203642
18 | 45:15.18 | 2:44.05 | 203643 | 215947
19 | 47:59.23 | 0:52.70 | 215948 | 219917
20 | 48:52.18 | 2:32.27 | 219918 | 231344
21 | 51:24.45 | 2:36.30 | 231345 | 243074
22 | 54:01.00 | 2:27.33 | 243075 | 254132
Gama de estados y errores
Seleccionar gama
Nombre de Archivo D:\Musica\Compartidos\CD1.wav
Nivel Pico 99.5 %
Gama de Calidad 99.9 %
Copiar CRC FB2C1C81
Copia OK
Sin Errores
Resumen AccurateRip
Pista 1 extraido de modo preciso (nivel de confianza 2) [91B952C5]
Pista 2 extraido de modo preciso (nivel de confianza 2) [EEB70D39]
Pista 3 extraido de modo preciso (nivel de confianza 2) [EDE49A50]
Pista 4 extraido de modo preciso (nivel de confianza 2) [609ACEE7]
Pista 5 extraido de modo preciso (nivel de confianza 2) [6EF6E8CF]
Pista 6 extraido de modo preciso (nivel de confianza 2) [F83EB582]
Pista 7 extraido de modo preciso (nivel de confianza 2) [8B9CE155]
Pista 8 extraido de modo preciso (nivel de confianza 2) [E0B6DD95]
Pista 9 extraido de modo preciso (nivel de confianza 2) [ACCD8372]
Pista 10 extraido de modo preciso (nivel de confianza 2) [2DA81157]
Pista 11 extraido de modo preciso (nivel de confianza 2) [1BBC9378]
Pista 12 extraido de modo preciso (nivel de confianza 2) [3E549C6A]
Pista 13 extraido de modo preciso (nivel de confianza 2) [8896A985]
Pista 14 extraido de modo preciso (nivel de confianza 2) [CEBC5F62]
Pista 15 extraido de modo preciso (nivel de confianza 2) [30DF64EB]
Pista 16 extraido de modo preciso (nivel de confianza 2) [D47BCF86]
Pista 17 extraido de modo preciso (nivel de confianza 2) [068621AA]
Pista 18 extraido de modo preciso (nivel de confianza 2) [E495BE56]
Pista 19 extraido de modo preciso (nivel de confianza 2) [37DBD477]
Pista 20 extraido de modo preciso (nivel de confianza 2) [A6C8BB22]
Pista 21 extraido de modo preciso (nivel de confianza 2) [6320589E]
Pista 22 extraido de modo preciso (nivel de confianza 2) [19C3465D]
Todas las pistas extraidas de modo preciso
Final del Informe

Лог создания рипа CD 2

Exact Audio Copy V0.99 prebeta 5 from 4. May 2009
Archivo Log de extracciones desde 9. Noviembre 2009, 8:27
Sinopoli; Deutschen Oper Berlin / Strauss, R.: Salome
Usar unidad : HL-DT-STDVD-ROM GDR8164B Adapter: 5 ID: 1
Modo de Lectura : Seguro
Utilizar Corriente Exacta : Sн
Descartar Audio cachй : Sн
Utilizar los punteros C2 : No
Correcciуn de Desplazamiento de Lectura : 102
Sobreleer tanto en Lead-In como en Lead-Out : No
Rellenar las muestras faltantes con silencios : Sн
Eliminar silencios inicial y final : No
Se han usado muestras nulas en los cбlculos CRC : Sн
Interfaz usada : Interfaz propio de Win32 para Windowns NT y 2000
Formato de Salida utilizado : Rutinas WAV Internas
Formato de Muestreo : 44.100 Hz; 16 Bit; Estйreo
TOC del CD extraido
Pista | Inicio | Duraciуn | Sector inicial | Sector final
-------------------------------------------------------------
1 | 0:00.33 | 4:03.52 | 33 | 18309
2 | 4:04.10 | 9:27.50 | 18310 | 60884
3 | 13:31.60 | 4:20.03 | 60885 | 80387
4 | 17:51.63 | 3:13.45 | 80388 | 94907
5 | 21:05.33 | 2:48.40 | 94908 | 107547
6 | 23:53.73 | 1:49.60 | 107548 | 115782
7 | 25:43.58 | 2:21.25 | 115783 | 126382
8 | 28:05.08 | 11:19.22 | 126383 | 177329
9 | 39:24.30 | 1:17.45 | 177330 | 183149
10 | 40:42.00 | 4:36.33 | 183150 | 203882
Gama de estados y errores
Seleccionar gama
Nombre de Archivo D:\Musica\Compartidos\CD2.wav
Nivel Pico 97.7 %
Gama de Calidad 99.9 %
Copiar CRC 78E71ABA
Copia OK
Sin Errores
Resumen AccurateRip
Pista 1 extraido de modo preciso (nivel de confianza 2) [E5CD5562]
Pista 2 extraido de modo preciso (nivel de confianza 2) [8B4EB342]
Pista 3 extraido de modo preciso (nivel de confianza 2) [BE4F42CE]
Pista 4 extraido de modo preciso (nivel de confianza 2) [094ECBC0]
Pista 5 extraido de modo preciso (nivel de confianza 2) [7E4E13EE]
Pista 6 extraido de modo preciso (nivel de confianza 2) [A7A41C4D]
Pista 7 extraido de modo preciso (nivel de confianza 2) [CFCFC01C]
Pista 8 extraido de modo preciso (nivel de confianza 2) [9C2149ED]
Pista 9 extraido de modo preciso (nivel de confianza 2) [CC42D458]
Pista 10 extraido de modo preciso (nivel de confianza 2) [B6A3DF96]
Todas las pistas extraidas de modo preciso
Final del Informe

Содержание индексной карты (.CUE)Содержание индексной карты (.CUE) CD 1

REM GENRE Opera
REM DATE 1991
REM DISCID 220D3C16
REM COMMENT "ExactAudioCopy v0.99pb5"
PERFORMER "Sinopoli; Deutschen Oper Berlin"
TITLE "Strauss, R.: Salome "
FILE "Str.Sin.Sal1.ape" WAVE
TRACK 01 AUDIO
TITLE "ERSTE SZENE Wie schoen ist die Prinzessin Salome heute nacht!"
PERFORMER "Sinopoli; Deutschen Oper Berlin"
INDEX 00 00:00:00
INDEX 01 00:00:33
TRACK 02 AUDIO
TITLE "Nach mir wird Einer kommen"
PERFORMER "Sinopoli; Deutschen Oper Berlin"
INDEX 01 02:43:13
TRACK 03 AUDIO
TITLE "ZWEITE SZENE Ich will nicht bleiben Ich kann nicht bleiben"
PERFORMER "Sinopoli; Deutschen Oper Berlin"
INDEX 01 05:11:03
TRACK 04 AUDIO
TITLE "Siehe, der Herr ist gekommen"
PERFORMER "Sinopoli; Deutschen Oper Berlin"
INDEX 01 06:52:55
TRACK 05 AUDIO
TITLE "Jauchze nicht, du Land Palaestina"
PERFORMER "Sinopoli; Deutschen Oper Berlin"
INDEX 01 08:29:08
TRACK 06 AUDIO
TITLE "Lasst den Propheten herauskommen"
PERFORMER "Sinopoli; Deutschen Oper Berlin"
INDEX 01 12:42:18
TRACK 07 AUDIO
TITLE "DRITTE SZENE Wo ist er, dessen Suendenbecher jetzt voll ist"
PERFORMER "Sinopoli; Deutschen Oper Berlin"
INDEX 01 15:00:58
TRACK 08 AUDIO
TITLE "Er ist schrecklich Er ist wirklich schrecklich!"
PERFORMER "Sinopoli; Deutschen Oper Berlin"
INDEX 01 19:25:13
TRACK 09 AUDIO
TITLE "Wer ist dies Weib, das mich ansieht?"
PERFORMER "Sinopoli; Deutschen Oper Berlin"
INDEX 01 21:27:50
TRACK 10 AUDIO
TITLE "Jochanaan! Ich bin verliebt in deinen Leib"
PERFORMER "Sinopoli; Deutschen Oper Berlin"
INDEX 01 24:00:60
TRACK 11 AUDIO
TITLE "Dein Leib ist grauenvoll"
PERFORMER "Sinopoli; Deutschen Oper Berlin"
INDEX 01 26:18:38
TRACK 12 AUDIO
TITLE "Zurueck, Tochter Sodoms! Beruehre mich nicht!"
PERFORMER "Sinopoli; Deutschen Oper Berlin"
INDEX 01 28:45:58
TRACK 13 AUDIO
TITLE "Niemals, Tochter Babylons, Tochter Sodoms, Niemals!"
PERFORMER "Sinopoli; Deutschen Oper Berlin"
INDEX 01 31:29:40
TRACK 14 AUDIO
TITLE "Wird dir nicht bange, Tochter der Herodias?"
PERFORMER "Sinopoli; Deutschen Oper Berlin"
INDEX 01 32:41:55
TRACK 15 AUDIO
TITLE "Lass mich deinen Mund kuessen, Jochanaan"
PERFORMER "Sinopoli; Deutschen Oper Berlin"
INDEX 01 35:38:70
TRACK 16 AUDIO
TITLE "Du bist verflucht"
PERFORMER "Sinopoli; Deutschen Oper Berlin"
INDEX 01 36:38:40
TRACK 17 AUDIO
TITLE "VIERTE SZENE Wo ist Salome? Wo ist die Prinzessin?"
PERFORMER "Sinopoli; Deutschen Oper Berlin"
INDEX 01 41:46:73
TRACK 18 AUDIO
TITLE "Salome, komm, trink Wein mit mir"
PERFORMER "Sinopoli; Deutschen Oper Berlin"
INDEX 01 45:15:18
TRACK 19 AUDIO
TITLE "Sieh, die Zeit ist gekommen"
PERFORMER "Sinopoli; Deutschen Oper Berlin"
INDEX 01 47:59:23
TRACK 20 AUDIO
TITLE "Wahrhaftig, Herr, es waee besser, ihn in unsre Haende zu geben"
PERFORMER "Sinopoli; Deutschen Oper Berlin"
INDEX 01 48:52:18
TRACK 21 AUDIO
TITLE "Siehe, der Tag ist nahe, der Tag des Herrn"
PERFORMER "Sinopoli; Deutschen Oper Berlin"
INDEX 01 51:24:45
TRACK 22 AUDIO
TITLE "O ueber dieses geile Weib, die Tochter Babylons"
PERFORMER "Sinopoli; Deutschen Oper Berlin"
INDEX 01 54:01:00

Содержание индексной карты (.CUE) CD 2

REM GENRE Opera
REM DATE 1991
REM DISCID 860A9E0A
REM COMMENT "ExactAudioCopy v0.99pb5"
PERFORMER "Sinopoli; Deutschen Oper Berlin"
TITLE "Strauss, R.: Salome "
FILE "Str.Sin.Sal2.ape" WAVE
TRACK 01 AUDIO
TITLE "Tanz fuer mich, Salome"
PERFORMER "Sinopoli; Deutschen Oper Berlin"
INDEX 00 00:00:00
INDEX 01 00:00:33
TRACK 02 AUDIO
TITLE "Salomes Tanz der sieben Schleier"
PERFORMER "Sinopoli; Deutschen Oper Berlin"
INDEX 01 04:04:10
TRACK 03 AUDIO
TITLE "Ah! Herrlich! Wundervoll, wundervoll!"
PERFORMER "Sinopoli; Deutschen Oper Berlin"
INDEX 01 13:31:60
TRACK 04 AUDIO
TITLE "Salome, ich beschwoere dich"
PERFORMER "Sinopoli; Deutschen Oper Berlin"
INDEX 01 17:51:63
TRACK 05 AUDIO
TITLE "Salome, bedenk, was du tun willst"
PERFORMER "Sinopoli; Deutschen Oper Berlin"
INDEX 01 21:05:33
TRACK 06 AUDIO
TITLE "Gib mir den Kopf des Jochanaan!"
PERFORMER "Sinopoli; Deutschen Oper Berlin"
INDEX 01 23:53:73
TRACK 07 AUDIO
TITLE "Es ist kein Laut zu vernehmen"
PERFORMER "Sinopoli; Deutschen Oper Berlin"
INDEX 01 25:43:58
TRACK 08 AUDIO
TITLE "Ah! Du wolltest mich nicht deinen Mund kuessen lassen, Jochanaan"
PERFORMER "Sinopoli; Deutschen Oper Berlin"
INDEX 01 28:05:08
TRACK 09 AUDIO
TITLE "Sie ist ein Ungeheuer, deine Tochter"
PERFORMER "Sinopoli; Deutschen Oper Berlin"
INDEX 01 39:24:30
TRACK 10 AUDIO
TITLE "Ah! Ich habe deinen Mund gekuesst, Jochanaan"
PERFORMER "Sinopoli; Deutschen Oper Berlin"
INDEX 01 40:42:00

Треклист

Disc 1:
1. "Wie schön ist die Prinzessin Salome heute Nacht!"
2. "Nach mir wird Einer kommen"
3. "Ich will nicht bleiben"
4. "Siehe, der Herr ist gekommen"
5. "Jauchze nicht, du Land Palästina"
6. Laßt den Propheten herauskommen
7. "Wo ist er, dessen Sündenbecher jetzt voll ist?"
8. "Er ist schrecklich"
9. "Wer ist dies Weib, das mich ansieht?"
10. "Zurück, Tochter Sodoms!"
11. Dein Leib ist grauenvoll
12. "Zurück, Tochter Sodoms!"
13. "Niemals, Tochter Babylons,Tochter Sodoms,...Niemals "N
14. "Wird dir nicht bange, Tochter der Herodias?"
15. "Lass mich deinen Mund küssen, Jochanaan!"
16. "Du bist verflucht"
17. "Wo ist Salome?"
18. "Salome, komm, trink Wein mit mir"
19. "Siehe, die Zeit ist gekommen"
20. "Wahrhaftig, Herr, es wäre besser, ihn in unsre Hände zu geben!"
21. "Siehe, der Tah ist nahe"
22. O über dieses geile Weib, die Tochter Babylons
Disc 2:
1. "Tanz für Mich, Salome"
2. Salome's Dance Of The Seven Veils
3. "Ah! Herrlich! Wundervoll, wundervoll!"
4. "Salome, ich beschwöre dich"
5. "Salome, bedenk, was du tun willst"
6. Gib mir den Kopf des Jochanaan!
7. "Es ist kein Laut zu vernehmen"
8. "Ah! Du wolltest mich nicht deinen Mund"
9. "Sie ist ein Ungeheuer, deine Tochter"
10. "Ah! Ich habe deinen Mund geküsst, Jochanaan"



Показать сообщения:    

Текущее время: 09-Дек 03:05

Часовой пояс: UTC + 3


Вы не можете начинать темы
Вы не можете отвечать на сообщения
Вы не можете редактировать свои сообщения
Вы не можете удалять свои сообщения
Вы не можете голосовать в опросах
Вы не можете прикреплять файлы к сообщениям
Вы не можете скачивать файлы