[TR24][OF] Johannes Brahms - The Piano Concertos (Daniel Barenboim, Staatskapelle Berlin and Gustavo Dudamel) - 2015 (Concert for Piano and Orchestra, Classical)


Статистика раздачи [Обновить пиров]
Размер:  1.64 GB   |    Зарегистрирован:  8 месяцев 18 дней   |    Скачан:  2 раза

Полного источника не было: 25 дней

 
   
 
 
 

[Цитировать]

Daniel Barenboim, Staatskapelle Berlin and Gustavo Dudamel / Brahms - The Piano Concertos
Формат записи/Источник записи: [TR24][OF]
Наличие водяных знаков: Нет
Год издания/переиздания диска: 2015
Жанр: Concert for Piano and Orchestra
Издатель(лейбл): Deutsche Grammophon
Продолжительность: 01:41:16
Исполнители:
Staatskapelle Berlin,
Daniel Barenboim,
Gustavo Dudamel.
Recorded live at the Philharmonie, Berlin, 1 3 September 2014 during, Berliner Festspiele.
Треклист:
Piano Concerto No. 1 in D minor Op. 15:
1. Maestoso
2. Adagio
3. Rondo. Allegro non troppo
Piano Concerto No. 2 in B flat major Op. 83:
4. Allegro non troppo
5. Allegro appassionato
6. Andante
7. Allegretto grazioso
Контейнер: FLAC (*.flac)
Тип рипа: tracks
Разрядность: 24/96
Количество каналов: 2.0
Источник: HDTracks

Dynamic Range Meter

foobar2000 1.3.6 / Замер динамического диапазона (DR) 1.1.1
Дата отчёта: 2015-08-19 04:26:34
--------------------------------------------------------------------------------
Анализ: Daniel Barenboim, Staatskapelle Berlin, Gustavo Dudamel / Brahms: The Piano Concertos (Live)
--------------------------------------------------------------------------------
DR Пики RMS Продолжительность трека
--------------------------------------------------------------------------------
DR16 -0.30 дБ -21.97 дБ 23:24 01-Brahms: Piano Concerto No.1 In D Minor, Op.15 - 1. Maestoso - Poco piu moderato (Live)
DR16 -5.12 дБ -28.64 дБ 14:25 02-Brahms: Piano Concerto No.1 In D Minor, Op.15 - 2. Adagio (Live)
DR17 -0.30 дБ -22.15 дБ 13:21 03-Brahms: Piano Concerto No.1 In D Minor, Op.15 - 3. Rondo (Allegro non troppo) (Live)
DR15 -1.77 дБ -23.04 дБ 18:41 04-Brahms: Piano Concerto No.2 In B Flat, Op.83 - 1. Allegro non troppo (Live)
DR15 -0.30 дБ -22.08 дБ 9:46 05-Brahms: Piano Concerto No.2 In B Flat, Op.83 - 2. Allegro appassionato (Live)
DR16 -4.42 дБ -29.65 дБ 12:31 06-Brahms: Piano Concerto No.2 In B Flat, Op.83 - 3. Andante - Piu adagio (Live)
DR14 -2.54 дБ -23.79 дБ 9:58 07-Brahms: Piano Concerto No.2 In B Flat, Op.83 - 4. Allegretto grazioso - Un poco piu presto (Live)
--------------------------------------------------------------------------------
Количество треков: 7
Реальные значения DR: DR15
Частота: 96000 Гц
Каналов: 2
Разрядность: 24
Битрейт: 2350 кбит/с
Кодек: FLAC
================================================================================
[teatrix.ru].t22032.torrent 
Торрент: Зарегистрирован [ 2016-03-20 12:46 ] · 2E97783296370D8ADA79923B497F198842A748A7

Скачать .torrent

Скачать

18 KB

Статус: проверено
Скачан: 2 раз
Размер: 1.64 GB
terms.php



Быстрый ответ

Имя:

      
Для отправки сообщений необходимо включить JavaScript
Показать сообщения:    

Текущее время: 07-Дек 23:16

Часовой пояс: UTC + 3


Вы можете начинать темы
Вы можете отвечать на сообщения
Вы не можете редактировать свои сообщения
Вы не можете удалять свои сообщения
Вы не можете голосовать в опросах
Вы не можете прикреплять файлы к сообщениям
Вы можете скачивать файлы