(Classical) Komitas Vardapet, Sayat-Nova, Shirin, Alexander Arutunian/Арутюнян, Arno Babadjanian/Бабаджанян, Karen Ananyan, Aram Khachaturian/Хачатурян - Expressia - Armenian Metamorpho (Cadence Ensemble) - 2008, FLAC (tracks+.cue) lossless


 

[Цитировать]

Komitas Vardapet, Sayat-Nova, Shirin, Alexander Arutunian, Arno Babadjanian, Karen Ananyan, Aram Khachaturian - Expressia- Armenian Metamorpho (Cadence Ensemble)
Жанр: Classical
Год издания диска: 2008
Издатель (лейбл): SRI Canada
Номер по каталогу: SIGCD129
Дата записи: 2007
Аудиокодек: FLAC
Тип рипа: tracks+.cue
Битрейт аудио: lossless
Продолжительность: 00:53:25
Источник: собственный рип
Наличие сканов в содержимом раздачи: да
Исполнители:
Cadence Ensemble
Треклист:
Komitas Vardapet
01. Krunk (04:15)
02. Kujin Ara Yev Gna-Gna (02:59)
Sayat-Nova
03. Khani Vur Jan Im (04:26)
04. Inch Khonim Hekimm (01:56)
Shirin
05. Dance (02:30)
Alexander Arutunian, Arno Babadjanian
06. Armenian Rhapsody (06:03)
Karen Ananyan
07. Folk Relections (12:51)
Aram Khachaturian
08. Adagio from 'Spartacus' (08:57)
09. Dance of girls in pink from 'Gayane' (02:35)
10. Lullaby from 'Gayane' (04:51)
11. Sabre Dance from 'Gayane' (02:02)

LOG EAC:

Exact Audio Copy V1.0 beta 3 from 29. August 2011
EAC extraction logfile from 19. August 2015, 11:45
Cadence Ensemble / Expressia - Armenian Metamorphoses
Used drive : PIONEER DVD-RW DVR-221L Adapter: 2 ID: 0
Read mode : Secure
Utilize accurate stream : Yes
Defeat audio cache : Yes
Make use of C2 pointers : No
Read offset correction : 6
Overread into Lead-In and Lead-Out : No
Fill up missing offset samples with silence : Yes
Delete leading and trailing silent blocks : No
Null samples used in CRC calculations : Yes
Used interface : Installed external ASPI interface
Gap handling : Appended to previous track
Used output format : User Defined Encoder
Selected bitrate : 768 kBit/s
Quality : High
Add ID3 tag : No
Command line compressor : C:\Program Files\Exact Audio Copy\Flac\flac.exe
Additional command line options : -6 -V -T "ARTIST=%artist%" -T "TITLE=%title%" -T "ALBUM=%albumtitle%" -T "DATE=%year%" -T "TRACKNUMBER=%tracknr%" -T "GENRE=%genre%" -T "COMMENT=%comment%" -T "ALBUMARTIST=%albuminterpret%" -T "COMPOSER=%composer%" -T "DISCNUMBER=%cdnumber%" -T "TOTALDISCS=%totalcds%" -T "TOTALTRACKS=%numtracks%" %source% -o %dest%
TOC of the extracted CD
Track | Start | Length | Start sector | End sector
---------------------------------------------------------
1 | 0:00.00 | 4:15.18 | 0 | 19142
2 | 4:15.18 | 2:58.41 | 19143 | 32533
3 | 7:13.59 | 4:25.38 | 32534 | 52446
4 | 11:39.22 | 1:56.13 | 52447 | 61159
5 | 13:35.35 | 2:30.01 | 61160 | 72410
6 | 16:05.36 | 6:03.16 | 72411 | 99651
7 | 22:08.52 | 12:50.45 | 99652 | 157446
8 | 34:59.22 | 8:56.60 | 157447 | 197706
9 | 43:56.07 | 2:34.49 | 197707 | 209305
10 | 46:30.56 | 4:51.12 | 209306 | 231142
11 | 51:21.68 | 2:01.44 | 231143 | 240261
Track 1
Filename D:\EAC\01 - Komitas Vardapet - Krunk.wav
Pre-gap length 0:00:02.00
Peak level 99.7 %
Extraction speed 5.0 X
Track quality 100.0 %
Test CRC C3F88097
Copy CRC C3F88097
Cannot be verified as accurate (confidence 1) [F1582B1B], AccurateRip returned [05D75988] (AR v2)
Copy OK
Track 2
Filename D:\EAC\02 - Komitas Vardapet - Kujin Ara Yev Gna-Gna.wav
Peak level 99.7 %
Extraction speed 5.1 X
Track quality 100.0 %
Test CRC B8B39DDF
Copy CRC B8B39DDF
Cannot be verified as accurate (confidence 1) [AF4C9E3D], AccurateRip returned [0B4E3823] (AR v2)
Copy OK
Track 3
Filename D:\EAC\03 - Sayat-Nova - Khani Vur Jan Im.wav
Peak level 99.7 %
Extraction speed 5.9 X
Track quality 100.0 %
Test CRC F5A1001E
Copy CRC F5A1001E
Cannot be verified as accurate (confidence 1) [838E999D], AccurateRip returned [AF938A6A] (AR v2)
Copy OK
Track 4
Filename D:\EAC\04 - Sayat-Nova - Inch Khonim Hekimm.wav
Peak level 99.7 %
Extraction speed 3.6 X
Track quality 99.9 %
Test CRC 8F9A8878
Copy CRC 8F9A8878
Cannot be verified as accurate (confidence 1) [559A053F], AccurateRip returned [20F04F62] (AR v2)
Copy OK
Track 5
Filename D:\EAC\05 - Shirin - Dance.wav
Peak level 99.7 %
Extraction speed 5.7 X
Track quality 100.0 %
Test CRC 8D03EB01
Copy CRC 8D03EB01
Cannot be verified as accurate (confidence 1) [CDF5BE4C], AccurateRip returned [1A97B354] (AR v2)
Copy OK
Track 6
Filename D:\EAC\06 - Alexander Arutunian, Arno Babadjanian - Armenian Rhapsody.wav
Peak level 99.8 %
Extraction speed 6.1 X
Track quality 99.9 %
Test CRC 99565054
Copy CRC 99565054
Cannot be verified as accurate (confidence 1) [BDF89B09], AccurateRip returned [A40F254C] (AR v2)
Copy OK
Track 7
Filename D:\EAC\07 - Karen Ananyan - Folk Relections.wav
Peak level 99.8 %
Extraction speed 7.7 X
Track quality 99.9 %
Test CRC FD8E3859
Copy CRC FD8E3859
Cannot be verified as accurate (confidence 1) [5E0B4B40], AccurateRip returned [364DA9C4] (AR v2)
Copy OK
Track 8
Filename D:\EAC\08 - Aram Khachaturian - Adagio from 'Spartacus'.wav
Peak level 99.7 %
Extraction speed 8.9 X
Track quality 100.0 %
Test CRC 4B8C569A
Copy CRC 4B8C569A
Cannot be verified as accurate (confidence 1) [A739E7C2], AccurateRip returned [CA52CEAB] (AR v2)
Copy OK
Track 9
Filename D:\EAC\09 - Dance of girls in pink from 'Gayane'.wav
Peak level 99.8 %
Extraction speed 7.8 X
Track quality 100.0 %
Test CRC 2AA7CC17
Copy CRC 2AA7CC17
Cannot be verified as accurate (confidence 1) [AEC96D71], AccurateRip returned [467C416D] (AR v2)
Copy OK
Track 10
Filename D:\EAC\10 - Lullaby from 'Gayane'.wav
Peak level 99.7 %
Extraction speed 7.5 X
Track quality 99.9 %
Test CRC C3D2335E
Copy CRC C3D2335E
Cannot be verified as accurate (confidence 1) [83EAE094], AccurateRip returned [9B771B5B] (AR v2)
Copy OK
Track 11
Filename D:\EAC\11 - Sabre Dance from 'Gayane'.wav
Peak level 99.8 %
Extraction speed 7.9 X
Track quality 100.0 %
Test CRC 2E1666EC
Copy CRC 2E1666EC
Cannot be verified as accurate (confidence 1) [BF38BF17], AccurateRip returned [FB5A088B] (AR v2)
Copy OK
No tracks could be verified as accurate
You may have a different pressing from the one(s) in the database
No errors occurred
End of status report
==== Log checksum B4C7F6AF47D5F1DA51CF32EED764B9E0E6ADA795A4694444936F3A3846A4A2B9 ====

LOG (.CUE):

REM GENRE Classical
REM DATE 2008
REM DISCID 8A0C830B
REM COMMENT "ExactAudioCopy v1.0b3"
PERFORMER "Cadence Ensemble"
TITLE "Expressia - Armenian Metamorphoses"
FILE "01 - Komitas Vardapet - Krunk.wav" WAVE
TRACK 01 AUDIO
TITLE "Komitas Vardapet - Krunk"
PERFORMER "Cadence Ensemble"
INDEX 01 00:00:00
FILE "02 - Komitas Vardapet - Kujin Ara Yev Gna-Gna.wav" WAVE
TRACK 02 AUDIO
TITLE "Komitas Vardapet - Kujin Ara Yev Gna-Gna"
PERFORMER "Cadence Ensemble"
INDEX 01 00:00:00
FILE "03 - Sayat-Nova - Khani Vur Jan Im.wav" WAVE
TRACK 03 AUDIO
TITLE "Sayat-Nova - Khani Vur Jan Im"
PERFORMER "Cadence Ensemble"
INDEX 01 00:00:00
FILE "04 - Sayat-Nova - Inch Khonim Hekimm.wav" WAVE
TRACK 04 AUDIO
TITLE "Sayat-Nova - Inch Khonim Hekimm"
PERFORMER "Cadence Ensemble"
INDEX 01 00:00:00
FILE "05 - Shirin - Dance.wav" WAVE
TRACK 05 AUDIO
TITLE "Shirin - Dance"
PERFORMER "Cadence Ensemble"
INDEX 01 00:00:00
FILE "06 - Alexander Arutunian, Arno Babadjanian - Armenian Rhapsody.wav" WAVE
TRACK 06 AUDIO
TITLE "Alexander Arutunian, Arno Babadjanian - Armenian Rhapsody"
PERFORMER "Cadence Ensemble"
INDEX 01 00:00:00
FILE "07 - Karen Ananyan - Folk Relections.wav" WAVE
TRACK 07 AUDIO
TITLE "Karen Ananyan - Folk Relections"
PERFORMER "Cadence Ensemble"
INDEX 01 00:00:00
FILE "08 - Aram Khachaturian - Adagio from 'Spartacus'.wav" WAVE
TRACK 08 AUDIO
TITLE "Aram Khachaturian - Adagio from 'Spartacus'"
PERFORMER "Cadence Ensemble"
INDEX 01 00:00:00
FILE "09 - Dance of girls in pink from 'Gayane'.wav" WAVE
TRACK 09 AUDIO
TITLE "Dance of girls in pink from 'Gayane'"
PERFORMER "Cadence Ensemble"
INDEX 01 00:00:00
FILE "10 - Lullaby from 'Gayane'.wav" WAVE
TRACK 10 AUDIO
TITLE "Lullaby from 'Gayane'"
PERFORMER "Cadence Ensemble"
INDEX 01 00:00:00
FILE "11 - Sabre Dance from 'Gayane'.wav" WAVE
TRACK 11 AUDIO
TITLE "Sabre Dance from 'Gayane'"
PERFORMER "Cadence Ensemble"
INDEX 01 00:00:00



Показать сообщения:    

Текущее время: 04-Дек 09:08

Часовой пояс: UTC + 3


Вы не можете начинать темы
Вы не можете отвечать на сообщения
Вы не можете редактировать свои сообщения
Вы не можете удалять свои сообщения
Вы не можете голосовать в опросах
Вы не можете прикреплять файлы к сообщениям
Вы не можете скачивать файлы