Виктор Цой: рождение легенды (В.Исаев, М.Белов, Д.Новиков) [15.08.20015, Документальный, SATRip-AVC]


Статистика раздачи [Обновить пиров]
Размер:  585 MB   |    Зарегистрирован:  8 месяцев 18 дней   |    Скачан:  0 раз

Полного источника не было: Никогда

 
   
 
 
 

[Цитировать]

Виктор Цой: рождение легенды
-Дата/Год выпуска: 15.08.20015
Страна: Россия
Жанр: Документальный
Продолжительность: 00:39:00
Перевод: не требуется
Русские субтитры: нет-Режиссер: Владимир Исаев, Михаил Белов, Дмитрий Новиков.-Телеканал: Рен ТВ
Описание: День, когда оборвалась жизнь и родилась легенда…
25 лет назад - 15 августа 1990 года погиб Виктор Цой.
Впервые за 10 лет друзья Виктора Цоя и поклонники, ставшие знаменитыми, соберутся вместе и расскажут, как группе «Кино» удалось стать не только культурным феноменом Перестройки, но и голосом целого поколения.
В фильме зрителя ждут эксклюзивные интервью: своими воспоминаниями поделятся телеведущие Владимир Познер и Дмитрий Дибров, певица Джоанна Стингрей, музыкант и звукорежиссер Алексей Вишня, участник первого состава группы «Кино» Алексей Рыбин, бас-гитарист группы «Кино» Александр Титов, медиаменеджер Константин Эрнст, журналисты Евгений Додолев и Александр Любимов, учителя Виктора Цоя и многие другие.-качество: SATRip
формат: mkv
Видео: 720х400 (16:9), 25,000 кадров/сек, H.264, ~1900 Кбит/сек
Аудио: 48,0 КГц, AC-3, 2 канала, ~192 Кбит/сек-

MediaInfo

General
Уникальный идентификатор : 218945682787801899617967631790728214863 (0xA4B767984A9EDD0396F511325C9EF94F)
Полное имя : G:\Виктор Цой. Рождение Легенды.mkv
Формат : Matroska
Версия формата : Version 2
Размер файла : 585 MiB
Продолжительность : 39mn 0s
Общий поток : 2 097 Kbps
Дата кодирования : UTC 2015-08-19 12:16:32
Программа кодирования : mkvmerge v6.1.0 ('Old Devil') built on Mar 4 2013 09:10:42
Библиотека кодирования : libebml v1.3.0 + libmatroska v1.4.0
Video
Идентификатор : 1
Формат : AVC
Формат/Информация : Advanced Video Codec
Профиль формата : High@L3.0
Параметр CABAC формата : Yes
Параметр ReFrames формата : 4 frames
Идентификатор кодека : V_MPEG4/ISO/AVC
Продолжительность : 39mn 0s
Битрейт : 1 900 Kbps
Ширина : 720 pixels
Высота : 400 pixels
Соотношение сторон : 16:9
Режим частоты кадров : Constant
Частота кадров : 25.000 fps
Цветовое пространство : YUV
Субдискретизация насыщенности : 4:2:0
Битовая глубина : 8 bits
Тип развёртки : Progressive
Бит/(Пиксели*Кадры) : 0.264
Размер потока : 520 MiB (89%)
Библиотека кодирования : x264 core 130 r2273 b3065e6
Настройки программы : cabac=1 / ref=3 / deblock=1:0:0 / analyse=0x3:0x113 / me=hex / subme=7 / psy=1 / psy_rd=1.00:0.10 / mixed_ref=1 / me_range=16 / chroma_me=1 / trellis=1 / 8x8dct=1 / cqm=0 / deadzone=21,11 / fast_pskip=1 / chroma_qp_offset=-3 / threads=4 / lookahead_threads=1 / sliced_threads=0 / nr=0 / decimate=1 / interlaced=0 / bluray_compat=0 / constrained_intra=0 / bframes=3 / b_pyramid=2 / b_adapt=1 / b_bias=0 / direct=1 / weightb=1 / open_gop=0 / weightp=2 / keyint=250 / keyint_min=25 / scenecut=40 / intra_refresh=0 / rc_lookahead=40 / rc=abr / mbtree=1 / bitrate=1900 / ratetol=1.0 / qcomp=0.60 / qpmin=0 / qpmax=69 / qpstep=4 / ip_ratio=1.40 / aq=1:1.00
Default : Yes
Forced : No
Audio
Идентификатор : 2
Формат : AC-3
Формат/Информация : Audio Coding 3
Расширение режима : CM (complete main)
Параметр Endianness формата : Big
Идентификатор кодека : A_AC3
Продолжительность : 39mn 0s
Вид битрейта : Constant
Битрейт : 192 Kbps
Каналы : 2 channels
Расположение каналов : Front: L R
Частота : 44.1 KHz
Битовая глубина : 16 bits
Метод сжатия : Lossy
Размер потока : 53.6 MiB (9%)
Default : Yes
Forced : No

Скриншоты

[teatrix.ru].t22035.torrent 
Торрент: Зарегистрирован [ 2016-03-20 12:46 ] · E823657C32E75E7138CF4EAF9D8D5533EAC13D41

Скачать .torrent

Скачать

12 KB

Статус: проверено
Скачан: 0 раз
Размер: 585 MB
terms.php



Быстрый ответ

Имя:

      
Для отправки сообщений необходимо включить JavaScript
Показать сообщения:    

Текущее время: 08-Дек 03:14

Часовой пояс: UTC + 3


Вы можете начинать темы
Вы можете отвечать на сообщения
Вы не можете редактировать свои сообщения
Вы не можете удалять свои сообщения
Вы не можете голосовать в опросах
Вы не можете прикреплять файлы к сообщениям
Вы можете скачивать файлы