(Classical) Edgar Varese - Ameriques; Offrandes; Hyperprism; Octandre; Arcana; Ionisation; Ecuatorial; Nocturnal; Integrales; Deserts - Bryn-Julson, Pierlot, Orchestre National de France, Nagano - 2005, FLAC (image+.cue) lossless


 

[Цитировать]

Edgar Varèse - Ameriques; Offrandes; Hyperprism; Octandre; Arcana; Ionisation; Ecuatorial; Nocturnal; Integrales; Deserts - Bryn-Julson, Pierlot, Orchestre National de France, Nagano
Жанр: Classical
Год издания диска: 2005
Издатель (лейбл): Warner Classics
Дата записи: 1991, 1992, 1996
Аудиокодек: FLAC
Тип рипа: image+.cue
Битрейт аудио: lossless
Продолжительность: 128:31
Источник: собственный рип
Наличие сканов в содержимом раздачи: да
Треклист:
Edgar Varèse (1883-1965)
CD1
[1] Amériques
[2]-[3] Offrandes
[4] Hyperprism
[5]-[7] Octandre
[8] Arcana
CD2
[1] Densité 21,5
[2] Ionisation
[3] Ecuatorial
[4] Nocturnal
[5] Intégrales
[6] Déserts
Исполнители:
Phyllis Bryn-Julson soprano (CD1 [3], CD2 [4])
Philippe Pierlot flute (CD2 [1])
Nicholas Isherwood bass-baritone (CD2 [3])
Chœurs d'hommes de Radio France (CD2 [4])
Orchestre National de France
Kent Nagano
conductor

Лог создания рипа: CD1

Exact Audio Copy V1.0 beta 3 from 29. August 2011
EAC extraction logfile from 23. October 2014, 23:06
Orchestre National de France, Kent Nagano / Varese - Chamber & Orchestral Works - CD1
Used drive : HL-DT-STDVDRAM GU70N Adapter: 0 ID: 0
Read mode : Secure
Utilize accurate stream : Yes
Defeat audio cache : Yes
Make use of C2 pointers : No
Read offset correction : 48
Overread into Lead-In and Lead-Out : No
Fill up missing offset samples with silence : Yes
Delete leading and trailing silent blocks : No
Null samples used in CRC calculations : Yes
Used interface : Native Win32 interface for Win NT & 2000
Used output format : User Defined Encoder
Selected bitrate : 128 kBit/s
Quality : High
Add ID3 tag : No
Command line compressor : C:\Program Files (x86)\Exact Audio Copy\Flac\flac.exe
Additional command line options : -V -8 -T "Date=%year%" -T "Genre=%genre%" %source%
TOC of the extracted CD
Track | Start | Length | Start sector | End sector
---------------------------------------------------------
1 | 0:00.00 | 23:34.32 | 0 | 106081
2 | 23:34.32 | 3:35.43 | 106082 | 122249
3 | 27:10.00 | 4:04.62 | 122250 | 140611
4 | 31:14.62 | 4:01.03 | 140612 | 158689
5 | 35:15.65 | 2:48.47 | 158690 | 171336
6 | 38:04.37 | 1:43.10 | 171337 | 179071
7 | 39:47.47 | 2:33.13 | 179072 | 190559
8 | 42:20.60 | 18:28.17 | 190560 | 273676
Range status and errors
Selected range
Filename C:\temp\Varese - Chamber & Orchestral Works\Varese - Chamber & Orchestral Works - CD1.wav
Peak level 98.1 %
Extraction speed 2.1 X
Range quality 99.9 %
Test CRC 586B8C91
Copy CRC 586B8C91
Copy OK
No errors occurred
AccurateRip summary
Track 1 accurately ripped (confidence 7) [DC89CED6] (AR v2)
Track 2 accurately ripped (confidence 7) [1633FAB8] (AR v2)
Track 3 accurately ripped (confidence 7) [3A2AD510] (AR v2)
Track 4 accurately ripped (confidence 7) [6B1DECD2] (AR v2)
Track 5 accurately ripped (confidence 7) [1810A64A] (AR v2)
Track 6 accurately ripped (confidence 7) [5FD27441] (AR v2)
Track 7 accurately ripped (confidence 7) [1334D1E0] (AR v2)
Track 8 accurately ripped (confidence 7) [F5081E0C] (AR v2)
All tracks accurately ripped
End of status report
==== Log checksum 96631E09BE07430F94D6810367D653493A423EC388D2539734E1BF31AA0837FF ====

Лог создания рипа: CD2

Exact Audio Copy V1.0 beta 3 from 29. August 2011
EAC extraction logfile from 24. October 2014, 0:24
Orchestre National de France, Kent Nagano / Varese - Chamber & Orchestral Works - CD2
Used drive : HL-DT-STDVDRAM GU70N Adapter: 0 ID: 0
Read mode : Secure
Utilize accurate stream : Yes
Defeat audio cache : Yes
Make use of C2 pointers : No
Read offset correction : 48
Overread into Lead-In and Lead-Out : No
Fill up missing offset samples with silence : Yes
Delete leading and trailing silent blocks : No
Null samples used in CRC calculations : Yes
Used interface : Native Win32 interface for Win NT & 2000
Used output format : User Defined Encoder
Selected bitrate : 128 kBit/s
Quality : High
Add ID3 tag : No
Command line compressor : C:\Program Files (x86)\Exact Audio Copy\Flac\flac.exe
Additional command line options : -V -8 -T "Date=%year%" -T "Genre=%genre%" %source%
TOC of the extracted CD
Track | Start | Length | Start sector | End sector
---------------------------------------------------------
1 | 0:00.00 | 3:47.27 | 0 | 17051
2 | 3:47.27 | 6:24.63 | 17052 | 45914
3 | 10:12.15 | 11:08.15 | 45915 | 96029
4 | 21:20.30 | 11:20.00 | 96030 | 147029
5 | 32:40.30 | 10:46.72 | 147030 | 195551
6 | 43:27.27 | 25:35.65 | 195552 | 310741
Range status and errors
Selected range
Filename C:\temp\Varese - Chamber & Orchestral Works\Varese - Chamber & Orchestral Works - CD2.wav
Peak level 97.7 %
Extraction speed 2.2 X
Range quality 100.0 %
Test CRC B945C724
Copy CRC B945C724
Copy OK
No errors occurred
AccurateRip summary
Track 1 accurately ripped (confidence 7) [07B56437] (AR v2)
Track 2 accurately ripped (confidence 7) [7B992E7A] (AR v2)
Track 3 accurately ripped (confidence 7) [DE29D056] (AR v2)
Track 4 accurately ripped (confidence 7) [56F90C71] (AR v2)
Track 5 accurately ripped (confidence 7) [E121F9EC] (AR v2)
Track 6 accurately ripped (confidence 6) [C324F79F] (AR v2)
All tracks accurately ripped
End of status report
==== Log checksum E65D70990D60280B5EE48BDF6F6A1E18F6344EA3B7D24E634C08B28F3E1DDBA4 ====



Показать сообщения:    

Текущее время: 08-Дек 21:14

Часовой пояс: UTC + 3


Вы не можете начинать темы
Вы не можете отвечать на сообщения
Вы не можете редактировать свои сообщения
Вы не можете удалять свои сообщения
Вы не можете голосовать в опросах
Вы не можете прикреплять файлы к сообщениям
Вы не можете скачивать файлы