Восхождение Меркель / The Making of Merkel with Andrew Marr (Марк Радис) [2013, Документальный, биография, IPTVRip]


Статистика раздачи [Обновить пиров]
Размер:  798 MB   |    Зарегистрирован:  8 месяцев 21 день   |    Скачан:  0 раз

Полного источника не было: Никогда

 
   
 
 
 

[Цитировать]

Восхождение Меркель / The Making of Merkel with Andrew Marr
Дата/Год выпуска: 2013
Страна: Великобритания, BBC Productions
Жанр: Документальный, биография
Продолжительность: 00:49:49
Перевод: Профессиональный (двухголосый закадровый)
Русские субтитры: нет
Оригинальная аудиодорожка: нет
Режиссер: Марк Радис
Телеканал: 24 DOC
Описание: Когда-то маленькая Ангела маршировала в рядах пионеров Германии и старательно учила русский язык. Но принадлежность коммунистической партии была скорее вынужденной - она была дочерью священника, а дети представителей духовенства часто подвергались дискриминации в Восточной Германии. Когда Ангеле было 23 года, она написала докторскую по квантовой химии. В те годы она была типичным ученым - скромной, с виду не приметной, ходила в мешковатых юбках, но отличалась острым умом.
Сэмпл: http://multi-up.com/1063097
качество: IPTVRip
формат: AVI
Видео: 720x384 (1.88:1), 25 fps, XviD MPEG-4 ~2007 kbps avg, 0.29 bit/pixel
Аудио: 48 kHz, AC3 Dolby Digital, 2 ch, ~224.00 kbps avg

MediaInfo

General
Complete name : W:\Pshichko66\Na zapis'\Документальные фильмы\Voshozhdenie Merkel'.avi
Format : AVI
Format/Info : Audio Video Interleave
Format profile : OpenDML
Format settings : rec
File size : 798 MiB
Duration : 49mn 49s
Overall bit rate : 2 238 Kbps
Writing application : AVI-Mux GUI 1.17.8.3, Feb 16 201019:42:50
Video
ID : 0
Format : MPEG-4 Visual
Format profile : Advanced Simple@L5
Format settings, BVOP : 2
Format settings, QPel : No
Format settings, GMC : No warppoints
Format settings, Matrix : Custom
Codec ID : XVID
Codec ID/Hint : XviD
Duration : 49mn 49s
Bit rate : 2 009 Kbps
Width : 720 pixels
Height : 384 pixels
Display aspect ratio : 1.85:1
Frame rate : 25.000 fps
Color space : YUV
Chroma subsampling : 4:2:0
Bit depth : 8 bits
Scan type : Progressive
Compression mode : Lossy
Bits/(Pixel*Frame) : 0.291
Stream size : 716 MiB (90%)
Writing library : XviD 73
Audio
ID : 1
Format : AC-3
Format/Info : Audio Coding 3
Format profile : Dolby Digital
Mode extension : CM (complete main)
Format settings, Endianness : Big
Codec ID : 2000
Duration : 49mn 49s
Bit rate mode : Constant
Bit rate : 224 Kbps
Channel(s) : 2 channels
Channel positions : Front: L R
Sampling rate : 48.0 KHz
Compression mode : Lossy
Stream size : 79.8 MiB (10%)
Alignment : Aligned on interleaves
Interleave, duration : 64 ms (1.60 video frames)
Interleave, preload duratio : 192 ms
Title : муркелл
[teatrix.ru].t22039.torrent 
Торрент: Зарегистрирован [ 2016-03-20 12:46 ] · DFBA9BFEF74650CC84E276EB03E7C6E6DEF6DE51

Скачать .torrent

Скачать

16 KB

Статус: проверено
Скачан: 0 раз
Размер: 798 MB
terms.php



Быстрый ответ

Имя:

      
Для отправки сообщений необходимо включить JavaScript
Показать сообщения:    

Текущее время: 11-Дек 03:21

Часовой пояс: UTC + 3


Вы можете начинать темы
Вы можете отвечать на сообщения
Вы не можете редактировать свои сообщения
Вы не можете удалять свои сообщения
Вы не можете голосовать в опросах
Вы не можете прикреплять файлы к сообщениям
Вы можете скачивать файлы