(Opera) Rossini - Guillaume Tell [Excerps], Guiot, Gedda, Blanc - Orchestre du Theatre National de L'Opera de Paris, Lombard) - 1998, APE (image+.cue) lossless


 

[Цитировать]

Gioacchino Rossini - Guillaume Tell [Excerps]
Жанр: Opera
Страна-производитель диска: France
Год издания диска: 1998
Издатель (лейбл): EMI
Номер по каталогу: 7243 5 73093 2 5
Дата записи: 1970
Аудиокодек: APE
Тип рипа: image+.cue
Битрейт аудио: lossless
Продолжительность: 46'27
Источник: собственный рип
Наличие сканов в содержимом раздачи: да
Треклист:
1. Overture
2. Act 1 - Où vas-tu?
3. Act 1 - Du Danger
4. Act 2 - Ils s'éloignent
5. Act 2 - Sombre forêt
6. Act 2 - oui, vous
7. Act 2 - Doux aveu!
8. Act 3 - Sois immobile Tell
9. Act 4 - Guillaume est dans les fers
10. Act 4 - Asile héréditaire
Исполнители:
Gioacchino Rossini - Guillaume Tell [Excerps]
Mathilde - Andréa Guiot
Arnold - Nicolai Gedda
Guillome Tell - Ernest Blanc
Orchestre du Théâtre National de L'Opéra de Paris
Alain Lombard

Лог создания рипа

Exact Audio Copy V1.0 beta 6 from 9. April 2015
EAC extraction logfile from 19. August 2015, 17:57
Rossini / Guillaume Tell [Excerps], Lombard
Used drive : TS8XDVDSTRANSCEND Adapter: 1 ID: 1
Read mode : Secure
Utilize accurate stream : Yes
Defeat audio cache : Yes
Make use of C2 pointers : No
Read offset correction : 6
Overread into Lead-In and Lead-Out : No
Fill up missing offset samples with silence : Yes
Delete leading and trailing silent blocks : No
Null samples used in CRC calculations : Yes
Used interface : Native Win32 interface for Win NT & 2000
Used output format : Monkey's Audio Lossless Encoder
Selected bitrate : High Lossless Compression
Quality : High
Add ID3 tag : Yes
Command line compressor : C:\Program Files (x86)\Exact Audio Copy\MAC\MAC.exe
TOC of the extracted CD
Track | Start | Length | Start sector | End sector
---------------------------------------------------------
1 | 0:00.32 | 12:09.15 | 32 | 54721
2 | 12:09.47 | 4:55.60 | 54722 | 76906
3 | 17:05.32 | 2:55.25 | 76907 | 90056
4 | 20:00.57 | 3:13.20 | 90057 | 104551
5 | 23:14.02 | 5:22.03 | 104552 | 128704
6 | 28:36.05 | 3:35.00 | 128705 | 144829
7 | 32:11.05 | 5:30.17 | 144830 | 169596
8 | 37:41.22 | 2:16.70 | 169597 | 179866
9 | 39:58.17 | 1:50.23 | 179867 | 188139
10 | 41:48.40 | 4:39.27 | 188140 | 209091
Range status and errors
Selected range
Filename D:\EAC\Rossini - Guillaume Tell [Excerps], Lombard.wav
Peak level 95.4 %
Extraction speed 1.9 X
Range quality 100.0 %
Test CRC A2C5BFBC
Copy CRC A2C5BFBC
Copy OK
No errors occurred
AccurateRip summary
Track 1 accurately ripped (confidence 5) [E09CB182] (AR v1)
Track 2 accurately ripped (confidence 5) [8BE54157] (AR v1)
Track 3 accurately ripped (confidence 5) [B0C275A1] (AR v1)
Track 4 accurately ripped (confidence 5) [9DB852FF] (AR v1)
Track 5 accurately ripped (confidence 5) [853C8EBF] (AR v1)
Track 6 accurately ripped (confidence 5) [317384AB] (AR v1)
Track 7 accurately ripped (confidence 5) [E279967C] (AR v1)
Track 8 accurately ripped (confidence 5) [A3E925B0] (AR v1)
Track 9 accurately ripped (confidence 5) [F17E095E] (AR v1)
Track 10 accurately ripped (confidence 5) [F28C2F8C] (AR v1)
All tracks accurately ripped
End of status report
---- CUETools DB Plugin V2.1.6
[CTDB TOCID: oEWKQ2FR32uNKMg2bdgvpnVX7VQ-] disk not present in database
Submit result: unrecognized or virtual drive
==== Log checksum 282CBC38A93B420F298BD7C5E4186A42F7E8492D602BF5C9B7E5DA5E60015D70 ====

Содержание индексной карты (.CUE)

REM GENRE Opera
REM DATE 1970
REM DISCID 6B0AE30A
REM COMMENT "ExactAudioCopy v1.0b6"
CATALOG 0000000000000
PERFORMER "Rossini"
TITLE "Guillaume Tell [Excerps], Lombard"
FILE "Rossini - Guillaume Tell [Excerps], Lombard.ape" WAVE
TRACK 01 AUDIO
TITLE "Overture"
PERFORMER "Guiot, Gedda, Blanc - L'Opéra de Paris"
ISRC FRZ116700950
INDEX 00 00:00:00
INDEX 01 00:00:32
TRACK 02 AUDIO
TITLE "Act 1 - Où vas-tu ?"
PERFORMER "Guiot, Gedda, Blanc - L'Opéra de Paris"
ISRC FRZ116700960
INDEX 00 12:07:10
INDEX 01 12:09:47
TRACK 03 AUDIO
TITLE "Act 1 - Du Danger"
PERFORMER "Guiot, Gedda, Blanc - L'Opéra de Paris"
ISRC FRZ116700970
INDEX 01 17:05:32
TRACK 04 AUDIO
TITLE "Act 2 - Ils s'éloignent"
PERFORMER "Guiot, Gedda, Blanc - L'Opéra de Paris"
ISRC FRZ116800980
INDEX 00 19:57:70
INDEX 01 20:00:57
TRACK 05 AUDIO
TITLE "Act 2 - Sombre forêt"
PERFORMER "Guiot, Gedda, Blanc - L'Opéra de Paris"
ISRC FRZ116800990
INDEX 01 23:14:02
TRACK 06 AUDIO
TITLE "Act 2 - oui, vous"
PERFORMER "Guiot, Gedda, Blanc - L'Opéra de Paris"
ISRC FRZ116801000
INDEX 00 28:32:57
INDEX 01 28:36:05
TRACK 07 AUDIO
TITLE "Act 2 - Doux aveu!"
PERFORMER "Guiot, Gedda, Blanc - L'Opéra de Paris"
ISRC FRZ116701010
INDEX 01 32:11:05
TRACK 08 AUDIO
TITLE "Act 3 - Sois immobile Tell"
PERFORMER "Guiot, Gedda, Blanc - L'Opéra de Paris"
ISRC FRZ116700980
INDEX 00 37:38:55
INDEX 01 37:41:22
TRACK 09 AUDIO
TITLE "Act 4 - Guillaume est dans les fers"
PERFORMER "Guiot, Gedda, Blanc - L'Opéra de Paris"
ISRC FRZ116700990
INDEX 01 39:58:17
TRACK 10 AUDIO
TITLE "Act 4 - Asile héréditaire"
PERFORMER "Guiot, Gedda, Blanc - L'Opéra de Paris"
ISRC FRZ116701000
INDEX 01 41:48:40



Показать сообщения:    

Текущее время: 05-Дек 01:21

Часовой пояс: UTC + 3


Вы не можете начинать темы
Вы не можете отвечать на сообщения
Вы не можете редактировать свои сообщения
Вы не можете удалять свои сообщения
Вы не можете голосовать в опросах
Вы не можете прикреплять файлы к сообщениям
Вы не можете скачивать файлы