[TR24][OF] John Adams - Absolute Jest (World Premiere Recording) & Grand Pianola Music (San Francisco Symphony and Michael Tilson Thomas) - 2015 (Contemporary, Orchestral)


Статистика раздачи [Обновить пиров]
Размер:  1.9 GB   |    Зарегистрирован:  10 месяцев 4 дня   |    Скачан:  0 раз

Полного источника не было: Никогда

 
   
 
 
 

[Цитировать]

John Adams - Absolute Jest (World Premiere Recording) & Grand Pianola Music / San Francisco Symphony & Michael Tilson Thomas
Формат записи/Источник записи: [TR24][OF]
Наличие водяных знаков: Нет
Год издания/переиздания диска: 2015
Жанр: Contemporary, Orchestral
Издатель(лейбл): San Francisco Symphony
Продолжительность: 57:27
Исполнители:
Absolute Jest: (for string quartet and orchestra):
San Francisco Symphony,
Lawrence String Quartet,
Michael Tilson Thomas, Conductor.
Grand Pianola Music:
Orli Shaham (piano),
Marc-André Hamelin (piano),
Synergy Vocals,
John Adams, Conductor.
Контейнер: FLAC (*.flac)
Тип рипа: tracks
Разрядность: 24/192
Количество каналов: 2.0
Источник: qobuz

Треклист

Absolute Jest:
1. I. Beginning
2. II. Presto
3. III. Lo Stesso Tempo
4. IV. Meno Mosso
5. V. Vivacissimo
6. VI. Prestissimo
Grand Pianola Music:
7. VII. Part 1
8. XIII. Part 2 - Slow
9. IX: Part 2, On The Dominant Divide

Dynamic Range Meter

foobar2000 1.3.6 / Замер динамического диапазона (DR) 1.1.1
Дата отчёта: 2015-08-20 04:14:48
--------------------------------------------------------------------------------
Анализ: San Francisco Symphony, Orchestra
John Adams, Composer
Orli Shaham, Pianoe
Marc-André Hamerlin, Piano
Synergy Vocals, Vocals
John Adams, Composer, Conductor / San Francisco Symphony, Michael Tilson Thomas, John Adams : Adams: Absolute Jest & Grand Pianola Music (1-3)
San Francisco Symphony, Orchestra
Michael Tilson Thomas, Conductor
St. Lawrence String Quartet, Ensemble
John Adams, Composer / San Francisco Symphony, Michael Tilson Thomas, John Adams : Adams: Absolute Jest & Grand Pianola Music (4-9)
--------------------------------------------------------------------------------
DR Пики RMS Продолжительность трека
--------------------------------------------------------------------------------
DR14 -0.20 дБ -20.78 дБ 15:24 07-Grand Pianola Music:Part 1
DR17 -1.06 дБ -25.82 дБ 7:46 08-Grand Pianola Music:Part 1 - Slow
DR14 -0.20 дБ -18.04 дБ 8:40 09-Grand Pianola Music:Part 2, On the Dominant Divide
DR15 -2.61 дБ -22.27 дБ 10:35 01-Absolute Jest:Beginning
DR13 -3.01 дБ -20.44 дБ 3:31 02-Absolute Jest:Presto
DR12 -9.31 дБ -23.56 дБ 1:08 03-Absolute Jest:Lo stesso tempo
DR14 -4.18 дБ -24.70 дБ 3:18 04-Absolute Jest:Meno mosso
DR12 -3.16 дБ -18.24 дБ 1:49 05-Absolute Jest:Vivacissimo
DR13 -0.20 дБ -17.22 дБ 5:20 06-Absolute Jest:Prestissimo
--------------------------------------------------------------------------------
Количество треков: 9
Реальные значения DR: DR14
Частота: 192000 Гц
Каналов: 2
Разрядность: 24
Битрейт: 4554 кбит/с
Кодек: FLAC
================================================================================
[teatrix.ru].t22041.torrent 
Торрент: Зарегистрирован [ 2016-03-20 12:46 ] · C2334EB95013E5E3C042E04C4321CE1B8BD39749

Скачать .torrent

Скачать

20 KB

Статус: проверено
Скачан: 0 раз
Размер: 1.9 GB
terms.php



Быстрый ответ

Имя:

      
Для отправки сообщений необходимо включить JavaScript
Показать сообщения:    

Текущее время: 25-Янв 00:21

Часовой пояс: UTC + 3


Вы можете начинать темы
Вы можете отвечать на сообщения
Вы не можете редактировать свои сообщения
Вы не можете удалять свои сообщения
Вы не можете голосовать в опросах
Вы не можете прикреплять файлы к сообщениям
Вы можете скачивать файлы