365 - Один фильм. Один год. Одна секунда в день / 365 - One year. One film. One second a day (Грег и Майлз МакЛеод / Greg & Myles McLeod) [2014, Великобритания, авторская анимация, WEBRip]


 

[Цитировать]

365 - Один фильм. Один год. Одна секунда в день / 365 - One year. One film. One second a day
Страна: Великобритания
Жанр: авторская анимация
Год выпуска: 2014
Продолжительность: 00:06:56
Перевод: не требуется
Cубтитры: нет
Режиссёры: Грег и Майлз МакЛеод / Greg & Myles McLeod
Описание: Экспериментальный мультфильм братьев МакЛеод. Майлзу принадлежит идея, а Грегу воплощение: он создавал по одной секунде анимации каждый день в течение всего 2013-го года. У фильма нет сюжета, точнее - это 365 микросюжетов, пришедших на ум молодому художнику.
Доп. информация: Jury Award & Audience Award - Animated Exeter (2014)
Audience Award - Flatpack Film Festival (2014)
Best Animation - Anchorage Film Festival (2014)
Session Award - Melbourne Animation Festival (2014)
Runner Up for UK Animation Prize (2014)
Качество видео: WEBRip
Формат видео: AVI
Видео: 2329 kbps, 720х400 (16:9), 25.000 fps, MPEG-4 Visual (XviD)
Аудио: 160 kbps, 48.0 kHz, 2 channels, MPEG Audio (MP3)

MediaInfo

General
Complete name : 365 - One Year. One Film (2014).avi
Format : AVI
Format/Info : Audio Video Interleave
File size : 124 MiB
Duration : 6mn 56s
Overall bit rate : 2 499 Kbps
Writing library : VirtualDub build 35491/release
Video
ID : 0
Format : MPEG-4 Visual
Format profile : Advanced Simple@L5
Format settings, BVOP : 2
Format settings, QPel : No
Format settings, GMC : No warppoints
Format settings, Matrix : Default (H.263)
Codec ID : XVID
Codec ID/Hint : XviD
Duration : 6mn 56s
Bit rate : 2 329 Kbps
Width : 720 pixels
Height : 400 pixels
Display aspect ratio : 16:9
Frame rate : 25.000 fps
Color space : YUV
Chroma subsampling : 4:2:0
Bit depth : 8 bits
Scan type : Progressive
Compression mode : Lossy
Bits/(Pixel*Frame) : 0.323
Stream size : 115 MiB (93%)
Writing library : XviD 64
Audio
ID : 1
Format : MPEG Audio
Format version : Version 1
Format profile : Layer 3
Mode : Joint stereo
Codec ID : 55
Codec ID/Hint : MP3
Duration : 6mn 55s
Bit rate mode : Constant
Bit rate : 160 Kbps
Channel(s) : 2 channels
Sampling rate : 48.0 KHz
Compression mode : Lossy
Stream size : 7.93 MiB (6%)
Alignment : Split accross interleaves
Interleave, duration : 40 ms (1.00 video frame)
Interleave, preload duration : 500 ms

Скриншот c названием фильма

Скриншоты




Показать сообщения:    

Текущее время: 09-Дек 08:49

Часовой пояс: UTC + 3


Вы не можете начинать темы
Вы не можете отвечать на сообщения
Вы не можете редактировать свои сообщения
Вы не можете удалять свои сообщения
Вы не можете голосовать в опросах
Вы не можете прикреплять файлы к сообщениям
Вы не можете скачивать файлы