(Baroque Vocal) Mozart - Concert Arias IV (Kremer, Vitale, Reymans, Tisi, Tchelebiev - European Chamber Orchestra, Keitel) - 2005, APE (image+.cue) lossless


 

[Цитировать]

Wolfgang Amadeus Mozart - Concert Arias IV
Жанр: Baroque Vocal
Страна-производитель диска: EU
Год издания диска: 2005
Издатель (лейбл): Brilliant
Номер по каталогу: 99731/4
Дата записи: 2002
Аудиокодек: APE
Тип рипа: image+.cue
Битрейт аудио: lossless
Продолжительность: 55'10
Источник: собственный рип
Наличие сканов в содержимом раздачи: да
Треклист:
1. Io ti lascio, KV 245
2. Cosi dunque tradisci...Aspri rimorsi atroci, KV 432
3. Dite almeno in che mancai, KV 479
4. Mandina amabile, KV 480
5. Alcandro, lo confesso...Non so, d'onde viene, KV 512
6. Mentre ti lascio, KV 513
7. Ich möchte wohl den Kaiser sein, KV 539
8. Un bacio di mano, KV 541
9. Per questa bella mano, KV 612
10. Popoli di Tessaglia, KV 315
11. Io non chiedo, KV 316
Исполнители:
Annemarie Kremer, soprano
Caroline Vitale, mezzo-soprano
Marcel Reymans, tenor
Ezio Maria Tisi, bass
Christian Tchelebiev, bass
European Chamber Orchestra
Wilhelm Keitel, conductor

Лог создания рипа

Exact Audio Copy V1.0 beta 3 from 29. August 2011
EAC extraction logfile from 22. October 2013, 23:53
Mozart / Concert Arias IV, Keitel 2002
Used drive : TSSTcorpCDDVDW SH-216AB Adapter: 0 ID: 1
Read mode : Secure
Utilize accurate stream : Yes
Defeat audio cache : Yes
Make use of C2 pointers : No
Read offset correction : 6
Overread into Lead-In and Lead-Out : No
Fill up missing offset samples with silence : Yes
Delete leading and trailing silent blocks : No
Null samples used in CRC calculations : Yes
Used interface : Native Win32 interface for Win NT & 2000
Used output format : Monkey's Audio Lossless Encoder
Selected bitrate : High Lossless Compression
Quality : High
Add ID3 tag : Yes
Command line compressor : K:\Program Files (x86)\Exact Audio Copy\Monkeys Audio\Monkey's Audio\MAC.exe
Additional command line options : -6 -V -T "ARTIST=%artist%" -T "TITLE=%title%" -T "ALBUM=%albumtitle%" -T "DATE=%year%" -T "TRACKNUMBER=%tracknr%" -T "GENRE=%genre%" -T "COMMENT=%comment%" -T "BAND=%albuminterpret%" -T "ALBUMARTIST=%albuminterpret%" -T "COMPOSER=%composer%" %haslyrics%--tag-from-file=LYRICS="%lyricsfile%"%haslyrics% -T "DISCNUMBER=%cdnumber%" -T "TOTALDISCS=%totalcds%" -T "TOTALTRACKS=%numtracks%" %hascover%--picture="%coverfile%"%hascover% %source% -o %dest%
TOC of the extracted CD
Track | Start | Length | Start sector | End sector
---------------------------------------------------------
1 | 0:00.00 | 2:58.35 | 0 | 13384
2 | 2:58.35 | 3:51.10 | 13385 | 30719
3 | 6:49.45 | 6:20.72 | 30720 | 59291
4 | 13:10.42 | 4:52.07 | 59292 | 81198
5 | 18:02.49 | 7:01.09 | 81199 | 112782
6 | 25:03.58 | 6:51.71 | 112783 | 143678
7 | 31:55.54 | 2:40.69 | 143679 | 155747
8 | 34:36.48 | 2:09.73 | 155748 | 165495
9 | 36:46.46 | 7:04.01 | 165496 | 197296
10 | 43:50.47 | 3:24.61 | 197297 | 212657
11 | 47:15.33 | 6:39.61 | 212658 | 242643
Range status and errors
Selected range
Filename I:\Foobar-EAC\Mozart - Concert Arias IV, Keitel 2002.wav
Peak level 99.2 %
Extraction speed 2.9 X
Range quality 100.0 %
Test CRC 6FF52313
Copy CRC 6FF52313
Copy OK
No errors occurred
AccurateRip summary
Track 1 accurately ripped (confidence 11) [C27D7C21] (AR v2)
Track 2 accurately ripped (confidence 11) [C724A233] (AR v2)
Track 3 accurately ripped (confidence 11) [E1506875] (AR v2)
Track 4 accurately ripped (confidence 11) [D5DC8C02] (AR v2)
Track 5 accurately ripped (confidence 11) [BF26C447] (AR v2)
Track 6 accurately ripped (confidence 11) [D7972218] (AR v2)
Track 7 accurately ripped (confidence 11) [5BFCA302] (AR v2)
Track 8 accurately ripped (confidence 11) [27CB0733] (AR v2)
Track 9 accurately ripped (confidence 11) [C01D96EB] (AR v2)
Track 10 accurately ripped (confidence 11) [E0932C9C] (AR v2)
Track 11 accurately ripped (confidence 11) [18BA1D49] (AR v2)
All tracks accurately ripped
End of status report
---- CUETools DB Plugin V2.1.3
[CTDB TOCID: d3egL5GSeU8EIwTAbL5zD4gZMZU-] found, Submit result: d3egL5GSeU8EIwTAbL5zD4gZMZU- has been confirmed
[514f0181] (74/76) Accurately ripped
[528e19d4] (01/76) No match
[e2b7d632] (01/76) No match
==== Log checksum 17D1647CE91A2565925D6AA4FD207C00DCE91CD118F1DC308FEDA25E95CC1035 ====

Содержание индексной карты (.CUE)

REM GENRE Vocal
REM DATE 2002
REM DISCID 8B0CA30B
REM COMMENT "ExactAudioCopy v1.0b3"
PERFORMER "Mozart"
TITLE "Concert Arias IV, Keitel 2002"
FILE "Mozart - Concert Arias IV, Keitel 2002.ape" WAVE
TRACK 01 AUDIO
TITLE "Io ti lascio, KV 245"
PERFORMER "Mozart"
FLAGS DCP
INDEX 01 00:00:00
TRACK 02 AUDIO
TITLE "Cosi dunque tradisci...Aspri rimorsi atroci, KV 432"
PERFORMER "Mozart"
FLAGS DCP
INDEX 01 02:58:35
TRACK 03 AUDIO
TITLE "Dite almeno in che mancai, KV 479"
PERFORMER "Mozart"
FLAGS DCP
INDEX 01 06:49:45
TRACK 04 AUDIO
TITLE "Mandina amabile, KV 480"
PERFORMER "Mozart"
FLAGS DCP
INDEX 01 13:10:42
TRACK 05 AUDIO
TITLE "Alcandro, lo confesso...Non so, d'onde viene, KV 512 "
PERFORMER "Mozart"
FLAGS DCP
INDEX 01 18:02:49
TRACK 06 AUDIO
TITLE "Mentre ti lascio, KV 513"
PERFORMER "Mozart"
FLAGS DCP
INDEX 01 25:03:58
TRACK 07 AUDIO
TITLE "Ich möchte wohl den Kaiser sein, KV 539"
PERFORMER "Mozart"
FLAGS DCP
INDEX 01 31:55:54
TRACK 08 AUDIO
TITLE "Un bacio di mano, KV 541"
PERFORMER "Mozart"
FLAGS DCP
INDEX 01 34:36:48
TRACK 09 AUDIO
TITLE "Per questa bella mano, KV 612"
PERFORMER "Mozart"
FLAGS DCP
INDEX 01 36:46:46
TRACK 10 AUDIO
TITLE "Popoli di Tessaglia, KV 315"
PERFORMER "Mozart"
FLAGS DCP
INDEX 01 43:50:47
TRACK 11 AUDIO
TITLE "Io non chiedo, KV 316"
PERFORMER "Mozart"
FLAGS DCP
INDEX 01 47:15:33



Показать сообщения:    

Текущее время: 11-Дек 07:14

Часовой пояс: UTC + 3


Вы не можете начинать темы
Вы не можете отвечать на сообщения
Вы не можете редактировать свои сообщения
Вы не можете удалять свои сообщения
Вы не можете голосовать в опросах
Вы не можете прикреплять файлы к сообщениям
Вы не можете скачивать файлы