Две жизни маршала Худякова (Максим Огечин) [2015, Документальный, биография, СССР, IPTVRip]


Статистика раздачи [Обновить пиров]
Размер:  650 MB   |    Зарегистрирован:  8 месяцев 22 дня   |    Скачан:  0 раз

Полного источника не было: Никогда

 
   
 
 
 

[Цитировать]

Две жизни маршала Худякова
Дата/Год выпуска: 2014
Страна: Россия
Жанр: Документальный, биография, СССР
Продолжительность: 00:42:53
Перевод: Не требуется
Режиссер: Максим Огечин
Телеканал: История
Описание: Карьера Худякова развивалась стремительно - Великую Отечественную войну он начал в чине генерал-майора, а закончил маршалом. Это он обеспечивал перелет советской делегации на Тегеранскую и Ялтинскую конференции союзников. Это он в 1945 году возглавлял 12-ю армию ВВС, организовал высадку десанта в Маньчжоу Го, арестовал императора Пу И и захватил золотой запас Маньчжурии. Однако при транспортировке богатств один из двух самолетов на пути в Москву вместе с золотом исчез.
В 1946 году маршал Худяков был арестован. В ходе следствия выяснилось, что его настоящее имя – Арменак Хафарьянц. В 20-е годы в Баку карабахский армянин поменял имя. Зачем он это сделал и что именно скрывал?
В 1950-м, после четырех лет заключения, Худяков-Хасфарьян был признан виновным и расстрелян. Позже – реабилитирован. Но его судьба до сих пор остается загадкой для историков…
Сэмпл: http://multi-up.com/1063185
качество: IPTVRip
формат: AVI
Видео: 720x384 (1.88:1), 25 fps, XviD MPEG-4 ~1918 kbps avg, 0.28 bit/pixel
Аудио: 48 kHz, AC3 Dolby Digital, 2 ch, ~192.00 kbps avg

MediaInfo

General
Complete name : W:\Pshichko66\Na zapis'\Документальные фильмы\Dve zhizni marshala Hudjakova.avi
Format : AVI
Format/Info : Audio Video Interleave
Format profile : OpenDML
Format settings : rec
File size : 650 MiB
Duration : 42mn 53s
Overall bit rate : 2 117 Kbps
Writing application : AVI-Mux GUI 1.17.8.3, Feb 16 201019:42:50
Video
ID : 0
Format : MPEG-4 Visual
Format profile : Advanced Simple@L5
Format settings, BVOP : 2
Format settings, QPel : No
Format settings, GMC : No warppoints
Format settings, Matrix : Custom
Codec ID : XVID
Codec ID/Hint : XviD
Duration : 42mn 53s
Bit rate : 1 920 Kbps
Width : 720 pixels
Height : 384 pixels
Display aspect ratio : 1.85:1
Frame rate : 25.000 fps
Color space : YUV
Chroma subsampling : 4:2:0
Bit depth : 8 bits
Scan type : Progressive
Compression mode : Lossy
Bits/(Pixel*Frame) : 0.278
Stream size : 589 MiB (91%)
Writing library : XviD 73
Audio
ID : 1
Format : AC-3
Format/Info : Audio Coding 3
Format profile : Dolby Digital
Mode extension : CM (complete main)
Format settings, Endianness : Big
Codec ID : 2000
Duration : 42mn 53s
Bit rate mode : Constant
Bit rate : 192 Kbps
Channel(s) : 2 channels
Channel positions : Front: L R
Sampling rate : 48.0 KHz
Compression mode : Lossy
Stream size : 58.9 MiB (9%)
Alignment : Aligned on interleaves
Interleave, duration : 64 ms (1.60 video frames)
Interleave, preload duratio : 192 ms
Title : худяков

Скриншоты

[teatrix.ru].t22046.torrent 
Торрент: Зарегистрирован [ 2016-03-20 12:46 ] · A1E3BD0DAC3EE235F72B4F3F499EFEF7A9E10577

Скачать .torrent

Скачать

13 KB

Статус: проверено
Скачан: 0 раз
Размер: 650 MB
terms.php



Быстрый ответ

Имя:

      
Для отправки сообщений необходимо включить JavaScript
Показать сообщения:    

Текущее время: 11-Дек 12:54

Часовой пояс: UTC + 3


Вы можете начинать темы
Вы можете отвечать на сообщения
Вы не можете редактировать свои сообщения
Вы не можете удалять свои сообщения
Вы не можете голосовать в опросах
Вы не можете прикреплять файлы к сообщениям
Вы можете скачивать файлы