Аванти / Вперёд / Avanti (Эммануэль Антиль / Emmanuelle Antille) [2012, Швейцария, Бельгия, драма, DVB -> DVD] Original (Fre) + Sub (Rus, Eng, Fre, Deu)


Статистика раздачи [Обновить пиров]
Размер:  2 GB   |    Зарегистрирован:  8 месяцев 19 дней   |    Скачан:  0 раз

Полного источника не было: Никогда

 
   
 
 
 

[Цитировать]

Аванти
Avanti- Страна: Швейцария, Бельгия
Жанр: драма
Год выпуска: 2012
Продолжительность: 01:22:54Перевод: Субтитры (русский перевод М.Кузиной, Éclair Media)
Cубтитры: русские, английские, французские, немецкие, нидерландские, румынские
Оригинальная аудиодорожка: французский
Режиссер: Эммануэль Антиль / Emmanuelle Antille
В ролях: Ханна Шигула / Hanna Schygulla (Suzanne), Нина Мёрисс / Nina Meurisse (Léa), Миу-Миу / Miou-Miou (Catherine), Жан-Пьер Гос / Jean-Pierre Gos (François), Моник Мелинан / Monique Mélinand (Anita)
Описание: Леа, женщина 28 лет, переживает глубокий кризис, не находя понимания ни в семье, ни на работе, ни у своего молодого человека. Она не может смириться с тем, что её мать Сюзанну вновь отправили в психиатрическую больницу. По выходным Сюзанну отпускают домой, и в один из таких дней Леа решает бежать вместе с ней. Пустившись в путь и оставшись наедине, мать и дочь почувствуют пьянящий аромат свободы. Они впервые попытаются понять друг друга.-Эммануэль Антиль родилась в швейцарском городе Лозанне в 1972 г. С 1991 по 1996 год она посещала Ecole Supérieure d’Art Visuel в Женеве, после чего продолжила обучение в Rijksakademie van Beeldende Kunsten (Амстердам, с 1997 по 1998 г.). Ее работы всегда очаровывают и привлекают внимание, преодолевая физические границы между фотографией, видеорядом, звуком, инсталляциями, а также музыкой. Основной их замысел заключается в том, чтобы показать интимные отношения и ритуалы, происходящие между тинейджерами, любовниками, матерями и дочерьми, а также способы, которыми различные группы людей взаимодействуют со своими общинами. Антиль получила значительное признание критиков за свои креативные изыски, которые были отмечены рядом официальных наград от престижных культурных заведений по всему миру. Художница представляла Швейцарию на Венецианской биеннале в 2003 году, и выставляла свои работы в сольных и групповых показах во множестве известных галерей, музеев и фестивалей в различных точках земного шара, включая Берлин, Рейкьявик, Токио, Цюрих, Чикаго, Нью-Йорк, Лос-Анджелес, Сараево, Рим, Москву, Париж и Мадрид.-Доп. информация: Hot Bird (13.0°E) TV5MONDE Europe DVB-S
Награды: приз жюри Эмиля Кантийона "Открытие" за лучший режиссерский дебют Festival International du Film Francophone de Namur 2012 + 2 номинации ("Золотой Байард" за лучший режиссерский дебют, приз зрительских симпатий за лучший полнометражный фильм); номинация на приз "Золотой глаз" за лучший иностранный фильм Zurich Film Festival 2012.

Качество видео: DVB
Формат видео: DVD Video
Видео: MPEG Video 2, 720x576@1024x576 (16:9), 25 fps, ~3193 kbps avg, 0.308 bit/pixel
Аудио: MPEG Audio 2, 2 ch, 48 kHz, ~192.00 kbps avg - французский
Формат субтитров: prerendered (IDX+SUB)

MediaInfo

Title: [apreder]Avanti(2012)DVB
Size: 2.00 Gb ( 2 097 586,00 KBytes ) - DVD-5
Enabled regions: 1, 2, 3, 4, 5, 6, 7, 8
VTS_01 :
Play Length: 01:22:54
Video: PAL 16:9 (720x576) VBR, Auto Letterboxed
Audio:
Francais (MPEG1, 2 ch)
Subtitles:
Russian
English
Francais
Deutsch
Nederlands
Romanian
Общее
Полное имя : F:\My Torrents 3\[apreder]Avanti(2012)DVB\VIDEO_TS\VTS_01_2.VOB
Формат : MPEG-PS
Размер файла : 1024 Мбайт
Продолжительность : 41 м.
Режим общего битрейта : Переменный
Общий поток : 3454 Кбит/сек
Видео
Идентификатор : 224 (0xE0)
Формат : MPEG Video
Версия формата : Version 2
Профиль формата : Main@Main
Параметр BVOP формата : Да
Параметр матрицы формата : Выборочная
Параметр GOP формата : M=4, N=12
Format_Settings_PictureStructure : Frame
Продолжительность : 41 м.
Вид битрейта : Переменный
Битрейт : 3193 Кбит/сек
Ширина : 720 пикселей
Высота : 576 пикселей
Соотношение сторон : 16:9
Частота кадров : 25,000 кадров/сек
Стандарт вещания : PAL
Цветовое пространство : YUV
Субдискретизация насыщенности : 4:2:0
Битовая глубина : 8 бит
Тип развёртки : Чересстрочная
Порядок развёртки : Верхнее поле первое
Метод сжатия : С потерями
Бит/(Пиксели*Кадры) : 0.308
Временной код первого кадра : 00:41:27:14
Оригинал временного кода : Group of pictures header
Размер потока : 947 Мбайт (92%)
Аудио
Идентификатор : 192 (0xC0)
Формат : MPEG Audio
Версия формата : Version 1
Профиль формата : Layer 2
Режим : Joint stereo
Расширение режима : Intensity Stereo + MS Stereo
Продолжительность : 41 м.
Вид битрейта : Постоянный
Битрейт : 192 Кбит/сек
Каналы : 2 канала
Частота : 48,0 КГц
Метод сжатия : С потерями
Задержка видео : -632 мс.
Размер потока : 56,9 Мбайт (6%)
Текст #1
Идентификатор : 189 (0xBD)-32 (0x20)
Формат : RLE
Формат/Информация : Run-length encoding
Режим смешивания : DVD-Video
Продолжительность : 41 м.
Задержка видео : 4 с. 960 мс.
Текст #2
Идентификатор : 189 (0xBD)-33 (0x21)
Формат : RLE
Формат/Информация : Run-length encoding
Режим смешивания : DVD-Video
Продолжительность : 41 м.
Задержка видео : 4 с. 960 мс.
Текст #3
Идентификатор : 189 (0xBD)-34 (0x22)
Формат : RLE
Формат/Информация : Run-length encoding
Режим смешивания : DVD-Video
Продолжительность : 41 м.
Задержка видео : 4 с. 960 мс.
Текст #4
Идентификатор : 189 (0xBD)-35 (0x23)
Формат : RLE
Формат/Информация : Run-length encoding
Режим смешивания : DVD-Video
Продолжительность : 41 м.
Задержка видео : 4 с. 960 мс.
Текст #5
Идентификатор : 189 (0xBD)-36 (0x24)
Формат : RLE
Формат/Информация : Run-length encoding
Режим смешивания : DVD-Video
Продолжительность : 41 м.
Задержка видео : 4 с. 960 мс.
Текст #6
Идентификатор : 189 (0xBD)-37 (0x25)
Формат : RLE
Формат/Информация : Run-length encoding
Режим смешивания : DVD-Video
Задержка видео : 5 с. 80 мс.

Скриншот c названием фильма

Скриншоты


Резервные скриншоты


-[2'559]
[teatrix.ru].t22047.torrent 
Торрент: Зарегистрирован [ 2016-03-20 12:46 ] · F1C526DBF7E2085B812869B448579E2938D6BA7F

Скачать .torrent

Скачать

11 KB

Статус: проверено
Скачан: 0 раз
Размер: 2 GB
terms.php



Быстрый ответ

Имя:

      
Для отправки сообщений необходимо включить JavaScript
Показать сообщения:    

Текущее время: 09-Дек 06:57

Часовой пояс: UTC + 3


Вы можете начинать темы
Вы можете отвечать на сообщения
Вы не можете редактировать свои сообщения
Вы не можете удалять свои сообщения
Вы не можете голосовать в опросах
Вы не можете прикреплять файлы к сообщениям
Вы можете скачивать файлы