(Renaissance) Sigismondo d'India: Arie, Madrigali & Lamenti (add. perf.: G. Kapsberger, A. Piccinini) / Gudrun Anders • Sigrun Richter • Hille Perl - 2008, WavPack (image+.cue) lossless


 

[Цитировать]

Sigismondo d'India
Arie, Madrigali & Lamenti
Gudrun Anders • Sigrun Richter • Hille Perl
Жанр: Renaissance
Страна-производитель диска: Germany
Год издания диска: 2008
Издатель (лейбл): Chritophorus
Номер по каталогу: CHE 0134-2
Дата записи: January 2000
Аудиокодек: WavPack
Тип рипа: image+.cue
Битрейт аудио: lossless
Продолжительность: 70:12
Источник: собственный рип
Наличие сканов в содержимом раздачи: да

Треклист

SIGISMONDO D'INDIA (ca. 1582-1629)
01. La Virtù - Prologo (a,d,f) [4:06]
02. Vaghe faville - Canzonetta (a,b,f) [2:01]
03. Da l'onde del mio pianto - Madrigale (a,c) [3:57]
GIOV. GIR. KAPSBERGER (1580-1651)
04. Preludio IV (c) [0:42]
SIGISMONDO D'INDIA
05. Intenerite voi - Madrigale (a,c,g) [2:59]
06. O del cielo d'amor - Aria (a,b) [3:58]
ALESSANDRO PICCININI (1560-1638)
07. Toccata XI (b) [3:11]
SIGISMONDO D'INDIA
08. Lagrimate, occhi miei - Madrigale (a,d,g) [3:53]
09. Lettera amorosa del Cavalier Marini (a,b) [7:58]
10. Pallidetta quai viola - Canzonetta (a,e,f) [1:19]
11. “Mercè!” grido piangendo - Madrigale (a,b) [2:37]
12. Piangono al pianger mio - Ottava (a,b,f) [4:21]
13. O che gradita - Aria (a,b) [2:41]
ALESSANDRO PICCININI
14. Ciaccona (d) [2:09]
SIGISMONDO D'INDIA
15. Lamento di Olimpia (a,b,g) [8:59]
16. Tu mi lasci, o cruda, o bella - Canzonetta (a,b) [1:30]
ALESSANDRO PICCININI
17. Toccata IV (d) [1:34]
SIGISMONDO D'INDIA
18. Canto di rosignolo (a,d) [6:54]
19. E pur tu parti - Madrigale (a,b,g) [3:36]
20. Sfere fermate - Aria (a,b,f) [1:49]

Instruments

(a) Sopran
(b) Arciliuto (Berndt Holzgruber (1986) nach Magno Tieffenbrucker)
(c) Chitarrone, 19-chörig mit Darmsaiten (Gerhard Söhne, 1999 nach Matteo Sellas, 1630)
(d) Chitarrone, 14-chörig mit Messingsaiten (Berndt Holzgruber nach italienischen Vorbildern um 1630)
(t) Chitarra alla spagnola (Ivo Magherini, 1994 nach Giovanni Tessler, 1620)
(f) Viola da gamba (Claus Dernbach, 1992 nach italienischen Vorbildern um 1600)
(g) Lirone (Norman Myall, 1986 nach Antonius Brensius, 1692)

Исполнители

Gudrun Anders: Soprano
Sigrun Richter: Arciliuto & Chitarrone
Hille Perl: Viola da gamba & Lirone

Sources

- Le Musiche di Sigismondo d'India Nobile Palermitano, Libro primo, Milano 1609
- Le Musiche del Signore Sigismondo d'India Maestro della Musica di Camera, Libro terzo, Milano 1618
- Le Musiche del Cavalier Sigismondo d'India, Libro quarto, Venezia 1621
- Le Musiche del Cavalier Sigismondo d'India, Libro quinto, Venezia 1623
- Sigismondo d'India, Le Musiche a una e due voci, Libri I, II, III, IV e V (1603-1623), Musiche Rinascimentali Siciliane IX, John Joyce, 1989
- Alessandro Piccinini, Intavolatura di Liuto e di Chitarrone, Libro primo, Bologna 1623
- Giovanni Girolamo Kapsberger, Libro quarto d Intavolatura di Chitarrone, Roma 1640

log EAC

Exact Audio Copy V0.99 prebeta 5 from 4. May 2009
Отчёт EAC об извлечении, выполненном 2. августа 2015, 18:31
Gudrun Andres, Sigrun Richter, Hille Perl / Sigismondo d'India: Arie, Madrigali & Lamenti
Дисковод: PIONEER DVD-RW DVR-219L Adapter: 1 ID: 1
Режим чтения : Достоверность
Использование точного потока : Да
Отключение кэша аудио : Да
Использование указателей C2 : Нет
Коррекция смещения при чтении : 6
Способность читать области Lead-in и Lead-out : Нет
Заполнение пропущенных сэмплов тишиной : Да
Удаление блоков с тишиной в начале и конце : Нет
При вычислениях CRC использовались нулевые сэмплы : Да
Интерфейс : Встроенный Win32-интерфейс для Win NT/2000
Выходной формат : Внутренние WAV-операции
Формат сэмплов : 44.100 Гц; 16 бит; стерео
TOC извлечённого CD
Трек | Старт | Длительность | Начальный сектор | Конечный сектор
---------------------------------------------------------------------
1 | 0:00.00 | 4:06.32 | 0 | 18481
2 | 4:06.32 | 2:00.42 | 18482 | 27523
3 | 6:06.74 | 3:56.40 | 27524 | 45263
4 | 10:03.39 | 0:41.53 | 45264 | 48391
5 | 10:45.17 | 2:58.47 | 48392 | 61788
6 | 13:43.64 | 3:58.18 | 61789 | 79656
7 | 17:42.07 | 3:10.64 | 79657 | 93970
8 | 20:52.71 | 3:52.65 | 93971 | 111435
9 | 24:45.61 | 7:57.55 | 111436 | 147265
10 | 32:43.41 | 1:18.53 | 147266 | 153168
11 | 34:02.19 | 2:36.47 | 153169 | 164915
12 | 36:38.66 | 4:20.42 | 164916 | 184457
13 | 40:59.33 | 2:41.08 | 184458 | 196540
14 | 43:40.41 | 2:09.04 | 196541 | 206219
15 | 45:49.45 | 8:59.23 | 206220 | 246667
16 | 54:48.68 | 1:29.41 | 246668 | 253383
17 | 56:18.34 | 1:34.28 | 253384 | 260461
18 | 57:52.62 | 6:53.50 | 260462 | 291486
19 | 64:46.37 | 3:36.36 | 291487 | 307722
20 | 68:22.73 | 1:48.48 | 307723 | 315870
Характеристики диапазона извлечения и сообщения об ошибках
Выбранный диапазон
Имя файла C:\Documents and Settings\Agni\Мои документы\EAC\Gudrun Andres, Sigrun Richter, Hille Perl - Sigismondo d'India - Arie, Madrigali & Lamenti.wav
Пиковый уровень 99.0 %
Качество диапазона 100.0 %
CRC теста 4DB48301
CRC копии 4DB48301
Копирование... OK
Ошибок не произошло
AccurateRip: сводка
Трек 1 нет в базе данных
Трек 2 нет в базе данных
Трек 3 нет в базе данных
Трек 4 нет в базе данных
Трек 5 нет в базе данных
Трек 6 нет в базе данных
Трек 7 нет в базе данных
Трек 8 нет в базе данных
Трек 9 нет в базе данных
Трек 10 нет в базе данных
Трек 11 нет в базе данных
Трек 12 нет в базе данных
Трек 13 нет в базе данных
Трек 14 нет в базе данных
Трек 15 нет в базе данных
Трек 16 нет в базе данных
Трек 17 нет в базе данных
Трек 18 нет в базе данных
Трек 19 нет в базе данных
Трек 20 нет в базе данных
Ни одного трека нет в базе AccurateRip
Конец отчёта



Показать сообщения:    

Текущее время: 04-Дек 13:12

Часовой пояс: UTC + 3


Вы не можете начинать темы
Вы не можете отвечать на сообщения
Вы не можете редактировать свои сообщения
Вы не можете удалять свои сообщения
Вы не можете голосовать в опросах
Вы не можете прикреплять файлы к сообщениям
Вы не можете скачивать файлы