(Classical) Sigismondo d'India: Le musiche da cantar solo, Libro V (Venezia, 1623) [add. perf.: G.Sanz, G.Kapsberger] / Maurizia Barazzoni • Sandro Volta - 1999, WavPack (image+.cue) lossless


 

[Цитировать]

Sigismondo d'India
Le musiche da cantar solo, Libro V (Venezia, 1623)
Maurizia Barazzoni • Sandro Volta
Жанр: Classical
Страна-производитель диска: Italy
Год издания диска: 1999
Издатель (лейбл): Tactus
Номер по каталогу: TC 580402
Дата записи: April 1998
Аудиокодек: WavPack
Тип рипа: image+.cue
Битрейт аудио: lossless
Продолжительность: 51:26
Источник: собственный рип
Наличие сканов в содержимом раздачи: да

Треклист

01. O che gradita [2:22]
02. Españoleta G.Sanz [1:27]
03. Infelice Didone (Lamento di Didone) [11:11]
04. O gioia dei mortali [1:31]
05. Folia G.Sanz [3:18]
06. Io che del ciel (La Virtù) [3:54]
07. Toccata H.K. [1:43]
08. O del cielo d'Amor [4:59]
09. Pavana G.Sanz [1:55]
10. Misera me, fia vero? (Lamento d'Olimpia) [8:26]
11. Torna il sereno Zéfiro [4:24]
12. Questo dardo (Diana) [3:16]
13. Canarios G.Sanz [1:21]
14. Sfere fermate [1:38]

Исполнители

Maurizia Barazzoni: Canto
Sandro Volta: Arciliuto, chitarrone, chitarra alla spagnola

log EAC

Exact Audio Copy V0.99 prebeta 5 from 4. May 2009
Отчёт EAC об извлечении, выполненном 3. августа 2015, 11:19
Maurizia Barazzoni, Sandro Volta / Sigismondo d'India: Le musiche da cantar solo, Libro V
Дисковод: PIONEER DVD-RW DVR-219L Adapter: 1 ID: 1
Режим чтения : Достоверность
Использование точного потока : Да
Отключение кэша аудио : Да
Использование указателей C2 : Нет
Коррекция смещения при чтении : 6
Способность читать области Lead-in и Lead-out : Нет
Заполнение пропущенных сэмплов тишиной : Да
Удаление блоков с тишиной в начале и конце : Нет
При вычислениях CRC использовались нулевые сэмплы : Да
Интерфейс : Встроенный Win32-интерфейс для Win NT/2000
Выходной формат : Внутренние WAV-операции
Формат сэмплов : 44.100 Гц; 16 бит; стерео
TOC извлечённого CD
Трек | Старт | Длительность | Начальный сектор | Конечный сектор
---------------------------------------------------------------------
1 | 0:00.00 | 2:21.44 | 0 | 10618
2 | 2:21.44 | 1:27.10 | 10619 | 17153
3 | 3:48.54 | 11:11.13 | 17154 | 67491
4 | 14:59.67 | 1:33.06 | 67492 | 74472
5 | 16:32.73 | 3:17.59 | 74473 | 89306
6 | 19:50.57 | 3:53.42 | 89307 | 106823
7 | 23:44.24 | 1:42.62 | 106824 | 114535
8 | 25:27.11 | 4:59.36 | 114536 | 136996
9 | 30:26.47 | 1:55.09 | 136997 | 145630
10 | 32:21.56 | 8:25.59 | 145631 | 183564
11 | 40:47.40 | 4:23.49 | 183565 | 203338
12 | 45:11.14 | 3:15.54 | 203339 | 218017
13 | 48:26.68 | 1:21.11 | 218018 | 224103
14 | 49:48.04 | 1:37.44 | 224104 | 231422
Характеристики диапазона извлечения и сообщения об ошибках
Выбранный диапазон
Имя файла C:\Documents and Settings\Agni\Мои документы\EAC\Barazzoni, Volta - Sigismondo d'India - Le musiche da cantar solo, Libro V.wav
Пиковый уровень 85.3 %
Качество диапазона 100.0 %
CRC теста DB639738
CRC копии DB639738
Копирование... OK
Ошибок не произошло
AccurateRip: сводка
Трек 1 точность не определена (достоверность 1) [260D0635], AccurateRip вернул [B332884D]
Трек 2 точность не определена (достоверность 1) [2690C77D], AccurateRip вернул [18EDB495]
Трек 3 точность не определена (достоверность 1) [4A8055D2], AccurateRip вернул [DFE798FA]
Трек 4 точность не определена (достоверность 1) [5C1D0987], AccurateRip вернул [302712EF]
Трек 5 точность не определена (достоверность 1) [0C747A19], AccurateRip вернул [D502C8C1]
Трек 6 точность не определена (достоверность 1) [654FB267], AccurateRip вернул [C607D597]
Трек 7 точность не определена (достоверность 1) [A949314E], AccurateRip вернул [929B6826]
Трек 8 точность не определена (достоверность 1) [5227D7DD], AccurateRip вернул [F861142D]
Трек 9 точность не определена (достоверность 1) [C14AF19F], AccurateRip вернул [7226583F]
Трек 10 точность не определена (достоверность 1) [0E39A46A], AccurateRip вернул [ED0C66A2]
Трек 11 точность не определена (достоверность 1) [6A55CC60], AccurateRip вернул [D5F9CE20]
Трек 12 точность не определена (достоверность 1) [1840CAAC], AccurateRip вернул [7E85B80C]
Трек 13 точность не определена (достоверность 1) [BBD82D8D], AccurateRip вернул [AE9D32FD]
Трек 14 точность не определена (достоверность 1) [99A199BD], AccurateRip вернул [96C0D3AD]
Ни один трек не прошёл проверки на точность
В вашей базе может быть иной вариант штамповки диска
Конец отчёта



Показать сообщения:    

Текущее время: 10-Дек 17:45

Часовой пояс: UTC + 3


Вы не можете начинать темы
Вы не можете отвечать на сообщения
Вы не можете редактировать свои сообщения
Вы не можете удалять свои сообщения
Вы не можете голосовать в опросах
Вы не можете прикреплять файлы к сообщениям
Вы не можете скачивать файлы