(Classical) Songs of Sigismondo d'India : Music of Italian Renaissance / Nancy Ross • Peter Collins • Patricia Corbett • Marta Gergovich - 1996, WavPack (image+.cue) lossless


 

[Цитировать]

Songs of Sigismondo d'India
Music of Italian Renaissance
Nancy Ross • Peter Collins
Жанр: Classical
Страна-производитель диска: USA
Год издания диска: 1996
Издатель (лейбл): Centaur
Номер по каталогу: CRC 2289
Дата записи: January 1993
Аудиокодек: WavPack
Тип рипа: image+.cue
Битрейт аудио: lossless
Продолжительность: 54:47
Источник: собственный рип
Наличие сканов в содержимом раздачи: да

Треклист

01. Forse vien four l'aurora [1:36]
02. O primavera, gioventù dell' anno [2:10]
03. La tra'l sangue e le morti egro giacente [2:17]
04. Dove potrò mai gir tanto lontano [4:57]
05. O ben mio, dove sei? [2:40]
06. Cruda Amarilli, che col nome ancora [2:24]
07. Io Che Del Ciel [3:55]
08. Ancidentemi pur, dogliosi affani [7:14]
09. O Che Gradita ha dolce vita [0:52]
10. Voglio Il Mio Duol Scoprir [2:21]
11. Langue al Vostro Languir [4:09]
12. Chi nudrisce tua speme, cor mio? [1:52]
13. Donna; vorrei dir molto [1:32]
14. Porto Celato [4:12]
15. Ahi, chi fia che consoli il dolor mio? [5:44]
16. Occhi della mia vita [3:23]
17. Piangono al pianger mio [3:29]

Исполнители

Nancy Ross: Soprano
Peter Collins: Harpsichord
Patricia Corbett: Soprano
Marta Gergovich: Viola da gamba

log EAC

Exact Audio Copy V0.99 prebeta 5 from 4. May 2009
Отчёт EAC об извлечении, выполненном 3. августа 2015, 9:33
Nancy Ross, Peter Collins, Patricia Corbett, Marta Gergovich / Songs of Sigismondo d'india
Дисковод: PIONEER DVD-RW DVR-219L Adapter: 1 ID: 1
Режим чтения : Достоверность
Использование точного потока : Да
Отключение кэша аудио : Да
Использование указателей C2 : Нет
Коррекция смещения при чтении : 6
Способность читать области Lead-in и Lead-out : Нет
Заполнение пропущенных сэмплов тишиной : Да
Удаление блоков с тишиной в начале и конце : Нет
При вычислениях CRC использовались нулевые сэмплы : Да
Интерфейс : Встроенный Win32-интерфейс для Win NT/2000
Выходной формат : Внутренние WAV-операции
Формат сэмплов : 44.100 Гц; 16 бит; стерео
TOC извлечённого CD
Трек | Старт | Длительность | Начальный сектор | Конечный сектор
---------------------------------------------------------------------
1 | 0:00.32 | 1:36.23 | 32 | 7254
2 | 1:36.55 | 2:09.42 | 7255 | 16971
3 | 3:46.22 | 2:17.35 | 16972 | 27281
4 | 6:03.57 | 4:56.43 | 27282 | 49524
5 | 11:00.25 | 2:39.72 | 49525 | 61521
6 | 13:40.22 | 2:23.58 | 61522 | 72304
7 | 16:04.05 | 3:55.37 | 72305 | 89966
8 | 19:59.42 | 7:14.28 | 89967 | 122544
9 | 27:13.70 | 0:51.60 | 122545 | 126429
10 | 28:05.55 | 2:20.65 | 126430 | 136994
11 | 30:26.45 | 4:08.42 | 136995 | 155636
12 | 34:35.12 | 1:52.23 | 155637 | 164059
13 | 36:27.35 | 1:32.27 | 164060 | 170986
14 | 37:59.62 | 4:11.55 | 170987 | 189866
15 | 42:11.42 | 5:44.03 | 189867 | 215669
16 | 47:55.45 | 3:22.45 | 215670 | 230864
17 | 51:18.15 | 3:29.00 | 230865 | 246539
Характеристики диапазона извлечения и сообщения об ошибках
Выбранный диапазон
Имя файла C:\Documents and Settings\Agni\Мои документы\EAC\Ross, Collins, Corbett, Gergovich - Songs of Sigismondo d'india.wav
Пиковый уровень 100.0 %
Качество диапазона 100.0 %
CRC теста EC19B59C
CRC копии EC19B59C
Копирование... OK
Ошибок не произошло
AccurateRip: сводка
Трек 1 нет в базе данных
Трек 2 нет в базе данных
Трек 3 нет в базе данных
Трек 4 нет в базе данных
Трек 5 нет в базе данных
Трек 6 нет в базе данных
Трек 7 нет в базе данных
Трек 8 нет в базе данных
Трек 9 нет в базе данных
Трек 10 нет в базе данных
Трек 11 нет в базе данных
Трек 12 нет в базе данных
Трек 13 нет в базе данных
Трек 14 нет в базе данных
Трек 15 нет в базе данных
Трек 16 нет в базе данных
Трек 17 нет в базе данных
Ни одного трека нет в базе AccurateRip
Конец отчёта



Показать сообщения:    

Текущее время: 03-Дек 05:29

Часовой пояс: UTC + 3


Вы не можете начинать темы
Вы не можете отвечать на сообщения
Вы не можете редактировать свои сообщения
Вы не можете удалять свои сообщения
Вы не можете голосовать в опросах
Вы не можете прикреплять файлы к сообщениям
Вы не можете скачивать файлы