По Волне Моей Памяти. Золотой Винил (Олег Нестеров) ч.39 [2012-2014. Телепередача. IPTVRip]


Статистика раздачи [Обновить пиров]
Размер:  3.85 GB   |    Зарегистрирован:  8 месяцев 18 дней   |    Скачан:  0 раз

Полного источника не было: Никогда

 
   
 
 
 

[Цитировать]

По Волне Моей Памяти. Золотой Винил (Олег Нестеров) ч.39- Год выпуска: 2012-2014 Страна: Россия
Жанр: Телепередача
Режиссер: Канал "ВРЕМЯ" В ролях: Олег Нестеров-Продолжительность: 16 передач (см. "Тех. данные файлов")-Описание: Авторская программа Олега Нестерова. Это - непринужденный разговор о любимой музыке, воспитавшей несколько поколений - с ее создателями. Те люди, которые формировали музыкальное мировоззрение целой страны расскажут нам о своей работе, интересных историях, связанных с самыми известными произведениями и поделятся планами на будущее.-Список передач: По Волне Моей Памяти: Л.Лоретти, Э.Пьеха. Золотой Винил: Белорусский Вокзал, В.Чистяков, Генералы Песчаных Карьеров, Кирилл Молчанов, Коричневая Пуговка, Музыка Нас Связала, Неисправимый Лгун, Петр Тодоровский, Позови Меня с Собой, Футбольный Марш, Ю.Чернавский, Я Люблю Тебя До Слёз-Качество: IPTVRip
Формат: AVI
Видео кодек: XviD
Аудио кодек: MP3-Видео: 704x512 ~1600 Kbps 25.00 fps Aspect Ratio 1.375
Аудио: MPEG Audio Layer 3 48000 Hz stereo 128 Kbps CBR

Тех. данные файлов:

Л.Лоретти. По Волне Моей Памяти. 704x512 1602 Kbps 00:28:23
Э.Пьеха. По Волне Моей Памяти.ч.1. 704x512 1601 Kbps 00:50:40
Э.Пьеха. По Волне Моей Памяти.ч.2. 704x512 1601 Kbps 00:51:44
Золотой Винил. Белорусский Вокзал. 704x512 1600 Kbps 00:15:42
Золотой Винил. В.Чистяков ч.1. 704x512 1601 Kbps 00:15:03
Золотой Винил. В.Чистяков ч.2. 704x512 1600 Kbps 00:15:17
Золотой Винил. Генералы Песчаных Карьеров. 704x512 1601 Kbps 00:12:45
Золотой Винил. Кирилл Молчанов. 704x512 1601 Kbps 00:13:06
Золотой Винил. Коричневая Пуговка. 704x512 1601 Kbps 00:12:51
Золотой Винил. Музыка Нас Связала. 704x512 1600 Kbps 00:10:43
Золотой Винил. Неисправимый Лгун. 704x512 1601 Kbps 00:14:15
Золотой Винил. Петр Тодоровский. 704x512 1601 Kbps 00:16:32
Золотой Винил. Позови Меня с Собой. 704x512 1600 Kbps 00:15:42
Золотой Винил. Футбольный Марш. 704x512 1600 Kbps 00:13:12
Золотой Винил. Ю.Чернавский. 704x512 1601 Kbps 00:15:38
Золотой Винил. Я Люблю Тебя До Слёз. 704x512 1601 Kbps 00:15:52

Скриншоты: кликните для увеличения

MediaInfo:

General
Format : AVI
Format/Info : Audio Video Interleave
File size : 353 MiB
Duration : 28mn 23s
Overall bit rate : 1 739 Kbps
Writing application : VirtualDubMod 1.5.10.3 | www.virtualdub-fr.org || (build 2550/release)
Writing library : VirtualDubMod build 2550/release
Video
ID : 0
Format : MPEG-4 Visual
Format profile : Advanced Simple@L5
Format settings, BVOP : Yes
Format settings, QPel : No
Format settings, GMC : No warppoints
Format settings, Matrix : Default (MPEG)
Codec ID : XVID
Codec ID/Hint : XviD
Duration : 28mn 23s
Bit rate : 1 602 Kbps
Width : 704 pixels
Height : 512 pixels
Display aspect ratio : 1.375
Frame rate : 25.000 fps
Color space : YUV
Chroma subsampling : 4:2:0
Bit depth : 8 bits
Scan type : Progressive
Compression mode : Lossy
Bits/(Pixel*Frame) : 0.178
Stream size : 325 MiB (92%)
Writing library : XviD 1.2.1 (UTC 2008-12-04)
Audio
ID : 1
Format : MPEG Audio
Format version : Version 1
Format profile : Layer 3
Codec ID : 55
Codec ID/Hint : MP3
Duration : 28mn 23s
Bit rate mode : Constant
Bit rate : 128 Kbps
Channel(s) : 2 channels
Sampling rate : 48.0 KHz
Compression mode : Lossy
Stream size : 26.0 MiB (7%)
Alignment : Aligned on interleaves
Interleave, duration : 40 ms (1.00 video frame)
Interleave, preload duration : 504 ms
Writing library : LAME3.99r
Encoding settings : -m s -V 4 -q 0 -lowpass 17 -b 128
[teatrix.ru].t22057.torrent 
Торрент: Зарегистрирован [ 2016-03-20 12:45 ] · E0A92C1A07EFA17701B58BEFC5EC6290AD309E6D

Скачать .torrent

Скачать

21 KB

Статус: проверено
Скачан: 0 раз
Размер: 3.85 GB
terms.php



Быстрый ответ

Имя:

      
Для отправки сообщений необходимо включить JavaScript
Показать сообщения:    

Текущее время: 08-Дек 03:14

Часовой пояс: UTC + 3


Вы можете начинать темы
Вы можете отвечать на сообщения
Вы не можете редактировать свои сообщения
Вы не можете удалять свои сообщения
Вы не можете голосовать в опросах
Вы не можете прикреплять файлы к сообщениям
Вы можете скачивать файлы