(Classical) Johann Christian Bach - Mailander Vesperpsalmen - Lunn, Biscuola, Poplutz, Bauer, Suddeutscher Kammerchor, Concerto Koln, Gerhard Jenemann - 2010, FLAC (image+.cue) lossless


Статистика раздачи [Обновить пиров]
Размер:  395 MB   |    Зарегистрирован:  8 месяцев 20 дней   |    Скачан:  0 раз

Полного источника не было: Никогда

 
   
 
 
 

[Цитировать]

Johann Christian Bach - Mailänder Vesperpsalmen - Lunn, Biscuola, Poplutz, Bauer, Süddeutscher Kammerchor, Concerto Köln, Gerhard Jenemann
Жанр: Classical
Страна-производитель диска: Germany
Год издания диска: 2010
Издатель (лейбл): Carus
Номер по каталогу: Carus 83.347
Дата записи: 2009
Аудиокодек: FLAC
Тип рипа: image+.cue
Битрейт аудио: lossless
Продолжительность: 92:26
Источник: собственный рип
Наличие сканов в содержимом раздачи: да
Треклист:
Johann Christian Bach (1735-1782)
CD1
[1] Domine ad adjuvandum
[2]-[10] Confitebor tibi Domine
[11]-[19] Beatus vir
CD2
[1]-[6] Laudate pueri Dominum
[7]-[11] Magnificat
Исполнители:
Joanne Lunn soprano
Elena Biscuola alto
Georg Poplutz tenor
Thomas E. Bauer bass
Süddeutscher Kammerchor
Concerto Köln
Gerhard Jenemann

Лог создания рипа: CD1

Exact Audio Copy V1.0 beta 3 from 29. August 2011
EAC extraction logfile from 20. June 2015, 23:09
Joanne Lunn, Elena Biscuola, Georg Poplutz, Thomas E. Bauer, Concerto Köln, Südd. Kammerchor, Gerhard Jenemann / Johann Christian Bach - Mailander Vesperpsalmen - CD1
Used drive : HL-DT-STDVDRAM GU70N Adapter: 0 ID: 0
Read mode : Secure
Utilize accurate stream : Yes
Defeat audio cache : Yes
Make use of C2 pointers : No
Read offset correction : 48
Overread into Lead-In and Lead-Out : No
Fill up missing offset samples with silence : Yes
Delete leading and trailing silent blocks : No
Null samples used in CRC calculations : Yes
Used interface : Native Win32 interface for Win NT & 2000
Used output format : User Defined Encoder
Selected bitrate : 128 kBit/s
Quality : High
Add ID3 tag : No
Command line compressor : C:\Program Files (x86)\Exact Audio Copy\Flac\flac.exe
Additional command line options : -V -8 -T "Date=%year%" -T "Genre=%genre%" %source%
TOC of the extracted CD
Track | Start | Length | Start sector | End sector
---------------------------------------------------------
1 | 0:00.00 | 5:20.22 | 0 | 24021
2 | 5:20.22 | 3:37.34 | 24022 | 40330
3 | 8:57.56 | 2:28.28 | 40331 | 51458
4 | 11:26.09 | 3:10.47 | 51459 | 65755
5 | 14:36.56 | 1:48.21 | 65756 | 73876
6 | 16:25.02 | 0:56.06 | 73877 | 78082
7 | 17:21.08 | 1:17.17 | 78083 | 83874
8 | 18:38.25 | 5:10.04 | 83875 | 107128
9 | 23:48.29 | 4:12.10 | 107129 | 126038
10 | 28:00.39 | 1:39.34 | 126039 | 133497
11 | 29:39.73 | 4:19.52 | 133498 | 152974
12 | 33:59.50 | 2:58.35 | 152975 | 166359
13 | 36:58.10 | 2:07.03 | 166360 | 175887
14 | 39:05.13 | 1:53.04 | 175888 | 184366
15 | 40:58.17 | 4:22.10 | 184367 | 204026
16 | 45:20.27 | 3:45.28 | 204027 | 220929
17 | 49:05.55 | 3:40.53 | 220930 | 237482
18 | 52:46.33 | 4:30.58 | 237483 | 257790
19 | 57:17.16 | 2:42.14 | 257791 | 269954
Range status and errors
Selected range
Filename C:\temp\J.C.Bach - Mailander Vesperpsalmen\CD1\Johann Christian Bach - Mailander Vesperpsalmen - CD1.wav
Peak level 100.0 %
Extraction speed 2.1 X
Range quality 100.0 %
Test CRC BAB2743A
Copy CRC BAB2743A
Copy OK
No errors occurred
AccurateRip summary
Track 1 accurately ripped (confidence 3) [64779B80] (AR v2)
Track 2 accurately ripped (confidence 3) [E0AC5F8D] (AR v2)
Track 3 accurately ripped (confidence 3) [A1CC6769] (AR v2)
Track 4 accurately ripped (confidence 3) [92FE3CAE] (AR v2)
Track 5 accurately ripped (confidence 3) [31F7A5F5] (AR v2)
Track 6 accurately ripped (confidence 3) [C5629B29] (AR v2)
Track 7 accurately ripped (confidence 3) [F1FDC087] (AR v2)
Track 8 accurately ripped (confidence 3) [C60DAEC7] (AR v2)
Track 9 accurately ripped (confidence 3) [4B04C1CE] (AR v2)
Track 10 accurately ripped (confidence 3) [D5C4609C] (AR v2)
Track 11 accurately ripped (confidence 3) [22F33F8E] (AR v2)
Track 12 accurately ripped (confidence 3) [733B4C8A] (AR v2)
Track 13 accurately ripped (confidence 3) [03BE3623] (AR v2)
Track 14 accurately ripped (confidence 3) [CAA495B2] (AR v2)
Track 15 accurately ripped (confidence 3) [7E82908F] (AR v2)
Track 16 accurately ripped (confidence 3) [E2ED1AC6] (AR v2)
Track 17 accurately ripped (confidence 3) [29707182] (AR v2)
Track 18 accurately ripped (confidence 3) [FEFB2AF6] (AR v2)
Track 19 accurately ripped (confidence 3) [AD46138E] (AR v2)
All tracks accurately ripped
End of status report
==== Log checksum C72675C8E9989119C8EB538A279373460700985ACCA3B7A2140B2484CD850FC5 ====

Лог создания рипа: CD2

Exact Audio Copy V1.0 beta 3 from 29. August 2011
EAC extraction logfile from 21. June 2015, 0:57
Joanne Lunn, Elena Biscuola, Georg Poplutz, Thomas E. Bauer, Concerto Köln, Gerhard Jenemann / Johann Christian Bach - Mailander Vesperpsalmen - CD2
Used drive : HL-DT-STDVDRAM GU70N Adapter: 0 ID: 0
Read mode : Secure
Utilize accurate stream : Yes
Defeat audio cache : Yes
Make use of C2 pointers : No
Read offset correction : 48
Overread into Lead-In and Lead-Out : No
Fill up missing offset samples with silence : Yes
Delete leading and trailing silent blocks : No
Null samples used in CRC calculations : Yes
Used interface : Native Win32 interface for Win NT & 2000
Used output format : User Defined Encoder
Selected bitrate : 128 kBit/s
Quality : High
Add ID3 tag : No
Command line compressor : C:\Program Files (x86)\Exact Audio Copy\Flac\flac.exe
Additional command line options : -V -8 -T "Date=%year%" -T "Genre=%genre%" %source%
TOC of the extracted CD
Track | Start | Length | Start sector | End sector
---------------------------------------------------------
1 | 0:00.00 | 4:17.16 | 0 | 19290
2 | 4:17.16 | 3:39.46 | 19291 | 35761
3 | 7:56.62 | 4:00.65 | 35762 | 53826
4 | 11:57.52 | 2:36.35 | 53827 | 65561
5 | 14:34.12 | 4:39.14 | 65562 | 86500
6 | 19:13.26 | 2:34.24 | 86501 | 98074
7 | 21:47.50 | 3:32.72 | 98075 | 114046
8 | 25:20.47 | 0:54.24 | 114047 | 118120
9 | 26:14.71 | 3:28.16 | 118121 | 133736
10 | 29:43.12 | 1:04.66 | 133737 | 138602
11 | 30:48.03 | 1:34.39 | 138603 | 145691
Range status and errors
Selected range
Filename C:\temp\J.C.Bach - Mailander Vesperpsalmen\CD2\Johann Christian Bach - Mailander Vesperpsalmen - CD2.wav
Peak level 100.0 %
Extraction speed 1.8 X
Range quality 99.9 %
Test CRC 42020AAD
Copy CRC 42020AAD
Copy OK
No errors occurred
AccurateRip summary
Track 1 accurately ripped (confidence 3) [9751E0C3] (AR v2)
Track 2 accurately ripped (confidence 4) [3E73117E] (AR v2)
Track 3 accurately ripped (confidence 4) [2C9B49F3] (AR v2)
Track 4 accurately ripped (confidence 4) [BC25F856] (AR v2)
Track 5 accurately ripped (confidence 4) [D2C6555F] (AR v2)
Track 6 accurately ripped (confidence 4) [CCF5DBBC] (AR v2)
Track 7 accurately ripped (confidence 4) [1066CBBF] (AR v2)
Track 8 accurately ripped (confidence 4) [7673AFF8] (AR v2)
Track 9 accurately ripped (confidence 4) [477AC860] (AR v2)
Track 10 accurately ripped (confidence 4) [84813AF5] (AR v2)
Track 11 accurately ripped (confidence 4) [6D9EBCDD] (AR v2)
All tracks accurately ripped
End of status report
==== Log checksum EF1D3248758467D1CF71A4BAF27882BC610C65798D4B07AD50F39E0E55D34EC3 ====
[teatrix.ru].t22061.torrent 
Торрент: Зарегистрирован [ 2016-03-20 12:45 ] · 51E0631505831292E032D06F8DC3C26FDA5B5217

Скачать .torrent

Скачать

33 KB

Статус: проверено
Скачан: 0 раз
Размер: 395 MB
terms.php



Быстрый ответ

Имя:

      
Для отправки сообщений необходимо включить JavaScript
Показать сообщения:    

Текущее время: 10-Дек 02:10

Часовой пояс: UTC + 3


Вы можете начинать темы
Вы можете отвечать на сообщения
Вы не можете редактировать свои сообщения
Вы не можете удалять свои сообщения
Вы не можете голосовать в опросах
Вы не можете прикреплять файлы к сообщениям
Вы можете скачивать файлы