(Opera) Giuseppe Verdi - Aroldo / Джузеппе Верди - Арольдо (Fabio Luisi; Neil Shicoff, Roberto Scandiuzzi, Carol Vaness, Anthony Michaels-Moore), 1997 - Studio recording / 2001, FLAC (image+.cue), lossless


 

[Цитировать]

Giuseppe Verdi - Aroldо / Джузеппе Верди - Арольдо (Fabio Luisi; Neil Shicoff, Roberto Scandiuzzi, Carol Vaness, Anthony Michaels-Moore)
Жанр: Opera
Страна-производитель диска: CША
Год издания диска: 2001
Издатель (лейбл): Philips
Дата записи: 1997
Аудиокодек: FLAC
Тип рипа: image+.cue
Битрейт аудио: lossless
Продолжительность: 126:19
Источник: релизер (Cunctator)
Наличие сканов в содержимом раздачи: да
Исполнители:
Aroldo - Neil Shicoff,
Briano - Roberto Scandiuzzi,
Mina - Carol Vaness,
Egberto - Anthony Michaels-Moore,
Godvino - Julian Gavin,
Enrico - Sergio Spina,
Elena - Marina Comparato.
Fabio Luisi, Conductor,
Orchestra and Chorus of Maggio Musicale Fiorentino.
Studio recording, made on 11-22 December 1997, at Teatro Verdi, Florence, Italy.

Лог создания рипаЛог создания рипа CD 1

Exact Audio Copy V1.0 beta 3 from 29. August 2011
EAC extraction logfile from 11. August 2015, 11:35
Shicoff, Vaness, Michaels-Moore, Scandiuzzi, Luisi / Verdi - Aroldo (CD 1)
Used drive : MATSHITADVD-RAM UJ8C2 S Adapter: 0 ID: 0
Read mode : Secure
Utilize accurate stream : Yes
Defeat audio cache : Yes
Make use of C2 pointers : No
Read offset correction : 103
Overread into Lead-In and Lead-Out : No
Fill up missing offset samples with silence : Yes
Delete leading and trailing silent blocks : No
Null samples used in CRC calculations : Yes
Used interface : Native Win32 interface for Win NT & 2000
Used output format : User Defined Encoder
Selected bitrate : 768 kBit/s
Quality : High
Add ID3 tag : No
Command line compressor : C:\Program Files (x86)\Exact Audio Copy\FLAC\FLAC.EXE
Additional command line options : -8 -V -T "ARTIST=%artist%" -T "TITLE=%title%" -T "ALBUM=%albumtitle%" -T "DATE=%year%" -T "TRACKNUMBER=%tracknr%" -T "GENRE=%genre%" -T "PERFORMER=%albuminterpret%" -T "COMPOSER=%composer%" %haslyrics%--tag-from-file=LYRICS="%lyricsfile%"%haslyrics% -T "ALBUMARTIST=%albumartist%" -T "DISCNUMBER=%cdnumber%" -T "TOTALDISCS=%totalcds%" -T "TOTALTRACKS=%numtracks%" -T "COMMENT=%comment%" %source% -o %dest%
TOC of the extracted CD
Track | Start | Length | Start sector | End sector
---------------------------------------------------------
1 | 0:00.00 | 8:56.67 | 0 | 40266
2 | 8:56.67 | 1:22.28 | 40267 | 46444
3 | 10:19.20 | 1:40.37 | 46445 | 53981
4 | 11:59.57 | 2:11.10 | 53982 | 63816
5 | 14:10.67 | 1:50.60 | 63817 | 72126
6 | 16:01.52 | 2:29.28 | 72127 | 83329
7 | 18:31.05 | 1:51.50 | 83330 | 91704
8 | 20:22.55 | 4:02.42 | 91705 | 109896
9 | 24:25.22 | 2:08.15 | 109897 | 119511
10 | 26:33.37 | 1:20.15 | 119512 | 125526
11 | 27:53.52 | 3:43.05 | 125527 | 142256
12 | 31:36.57 | 3:18.63 | 142257 | 157169
13 | 34:55.45 | 4:36.67 | 157170 | 177936
14 | 39:32.37 | 1:10.45 | 177937 | 183231
15 | 40:43.07 | 2:12.20 | 183232 | 193151
16 | 42:55.27 | 3:55.55 | 193152 | 210831
17 | 46:51.07 | 2:57.40 | 210832 | 224146
18 | 49:48.47 | 4:45.68 | 224147 | 245589
19 | 54:34.40 | 3:21.07 | 245590 | 260671
20 | 57:55.47 | 5:02.25 | 260672 | 283346
21 | 62:57.72 | 2:18.60 | 283347 | 293756
22 | 65:16.57 | 3:23.38 | 293757 | 309019
23 | 68:40.20 | 3:05.07 | 309020 | 322901
24 | 71:45.27 | 5:48.55 | 322902 | 349056
Range status and errors
Selected range
Filename D:\Verdi - Aroldo (CD 1) - Luisi.wav
Peak level 100.0 %
Extraction speed 4.4 X
Range quality 100.0 %
Test CRC 076F3894
Copy CRC 076F3894
Copy OK
No errors occurred
AccurateRip summary
Track 1 accurately ripped (confidence 26) [68F45EC6] (AR v2)
Track 2 accurately ripped (confidence 26) [59670270] (AR v2)
Track 3 accurately ripped (confidence 26) [7E360ACF] (AR v2)
Track 4 accurately ripped (confidence 26) [CE9B90E1] (AR v2)
Track 5 accurately ripped (confidence 26) [A2F190A5] (AR v2)
Track 6 accurately ripped (confidence 26) [EE931EB7] (AR v2)
Track 7 accurately ripped (confidence 26) [E9371110] (AR v2)
Track 8 accurately ripped (confidence 26) [01FA3DFD] (AR v2)
Track 9 accurately ripped (confidence 26) [FF822301] (AR v2)
Track 10 accurately ripped (confidence 26) [DBB1C1A6] (AR v2)
Track 11 accurately ripped (confidence 26) [0969FB01] (AR v2)
Track 12 accurately ripped (confidence 26) [947FC62F] (AR v2)
Track 13 accurately ripped (confidence 26) [44DB7466] (AR v2)
Track 14 accurately ripped (confidence 26) [A6C2A62D] (AR v2)
Track 15 accurately ripped (confidence 26) [0EFBB4B1] (AR v2)
Track 16 accurately ripped (confidence 26) [5950AB06] (AR v2)
Track 17 accurately ripped (confidence 26) [EF21B635] (AR v2)
Track 18 accurately ripped (confidence 26) [AE921F76] (AR v2)
Track 19 accurately ripped (confidence 26) [5A542471] (AR v2)
Track 20 accurately ripped (confidence 26) [CE20A870] (AR v2)
Track 21 accurately ripped (confidence 26) [157F36A4] (AR v2)
Track 22 accurately ripped (confidence 26) [E35E3D98] (AR v2)
Track 23 accurately ripped (confidence 27) [A125601B] (AR v2)
Track 24 accurately ripped (confidence 26) [0FF3F539] (AR v2)
All tracks accurately ripped
End of status report
---- CUETools DB Plugin V2.1.3
[CTDB TOCID: B0Bo6VxT77.QCDWGH.o504XBHCE-] found, Submit result: B0Bo6VxT77.QCDWGH.o504XBHCE- has been confirmed
[8214dc65] (14/14) Accurately ripped

Лог создания рипа CD 2

Exact Audio Copy V1.0 beta 3 from 29. August 2011
EAC extraction logfile from 11. August 2015, 13:31
Shicoff, Vaness, Michaels-Moore, Scandiuzzi, Luisi / Verdi - Aroldo (CD 2)
Used drive : MATSHITADVD-RAM UJ8C2 S Adapter: 0 ID: 0
Read mode : Secure
Utilize accurate stream : Yes
Defeat audio cache : Yes
Make use of C2 pointers : No
Read offset correction : 103
Overread into Lead-In and Lead-Out : No
Fill up missing offset samples with silence : Yes
Delete leading and trailing silent blocks : No
Null samples used in CRC calculations : Yes
Used interface : Native Win32 interface for Win NT & 2000
Used output format : User Defined Encoder
Selected bitrate : 768 kBit/s
Quality : High
Add ID3 tag : No
Command line compressor : C:\Program Files (x86)\Exact Audio Copy\FLAC\FLAC.EXE
Additional command line options : -8 -V -T "ARTIST=%artist%" -T "TITLE=%title%" -T "ALBUM=%albumtitle%" -T "DATE=%year%" -T "TRACKNUMBER=%tracknr%" -T "GENRE=%genre%" -T "PERFORMER=%albuminterpret%" -T "COMPOSER=%composer%" %haslyrics%--tag-from-file=LYRICS="%lyricsfile%"%haslyrics% -T "ALBUMARTIST=%albumartist%" -T "DISCNUMBER=%cdnumber%" -T "TOTALDISCS=%totalcds%" -T "TOTALTRACKS=%numtracks%" -T "COMMENT=%comment%" %source% -o %dest%
TOC of the extracted CD
Track | Start | Length | Start sector | End sector
---------------------------------------------------------
1 | 0:00.00 | 3:23.62 | 0 | 15286
2 | 3:23.62 | 3:31.13 | 15287 | 31124
3 | 6:55.00 | 1:32.25 | 31125 | 38049
4 | 8:27.25 | 2:07.00 | 38050 | 47574
5 | 10:34.25 | 2:29.72 | 47575 | 58821
6 | 13:04.22 | 5:59.60 | 58822 | 85806
7 | 19:04.07 | 5:22.08 | 85807 | 109964
8 | 24:26.15 | 4:32.52 | 109965 | 130416
9 | 28:58.67 | 1:37.43 | 130417 | 137734
10 | 30:36.35 | 3:04.67 | 137735 | 151601
11 | 33:41.27 | 4:03.70 | 151602 | 169896
12 | 37:45.22 | 0:43.35 | 169897 | 173156
13 | 38:28.57 | 1:47.20 | 173157 | 181201
14 | 40:16.02 | 4:40.33 | 181202 | 202234
15 | 44:56.35 | 4:08.62 | 202235 | 220896
Range status and errors
Selected range
Filename D:\Verdi - Aroldo (CD 2) - Luisi.wav
Peak level 100.0 %
Extraction speed 4.0 X
Range quality 100.0 %
Test CRC F0C0B3AD
Copy CRC F0C0B3AD
Copy OK
No errors occurred
AccurateRip summary
Track 1 accurately ripped (confidence 13) [0EC76695] (AR v2)
Track 2 accurately ripped (confidence 13) [94C2FDD8] (AR v2)
Track 3 accurately ripped (confidence 13) [2B70BE13] (AR v2)
Track 4 accurately ripped (confidence 13) [236DC23B] (AR v2)
Track 5 accurately ripped (confidence 13) [4CB86DE9] (AR v2)
Track 6 accurately ripped (confidence 13) [0F059815] (AR v2)
Track 7 accurately ripped (confidence 13) [4F36AB2A] (AR v2)
Track 8 accurately ripped (confidence 13) [C5CE3F41] (AR v2)
Track 9 accurately ripped (confidence 13) [98A01AEE] (AR v2)
Track 10 accurately ripped (confidence 13) [9684A414] (AR v2)
Track 11 accurately ripped (confidence 13) [F3B2D1BF] (AR v2)
Track 12 accurately ripped (confidence 13) [40040768] (AR v2)
Track 13 accurately ripped (confidence 13) [60F9606A] (AR v2)
Track 14 accurately ripped (confidence 13) [5A867413] (AR v2)
Track 15 accurately ripped (confidence 13) [E51E6B62] (AR v2)
All tracks accurately ripped
End of status report
---- CUETools DB Plugin V2.1.3
[CTDB TOCID: iAbrxohI3_SUx8b2EOb.vNFfIa8-] found, Submit result: database access error: Impossibile risolvere il nome remoto.: 'db.cuetools.net'
[bc67ee6e] (5/5) Accurately ripped

Содержание индексной карты (.CUE)Содержание индексной карты (.CUE) CD 1

REM GENRE Opera
REM DATE 2001
REM DISCID 7E122E18
REM COMMENT "ExactAudioCopy v1.0b3"
PERFORMER "Shicoff, Vaness, Michaels-Moore, Scandiuzzi, Luisi"
TITLE "Verdi - Aroldo (CD 1)"
FILE "Verdi - Aroldo (CD 1) - Luisi.flac" WAVE
TRACK 01 AUDIO
TITLE "Sinfonia"
PERFORMER "Shicoff, Vaness, Michaels-Moore, Scandiuzzi, Luisi"
INDEX 01 00:00:00
TRACK 02 AUDIO
TITLE "Atto 1 - Scena 1 - Coro: Tocchiamo!"
PERFORMER "Shicoff, Vaness, Michaels-Moore, Scandiuzzi, Luisi"
INDEX 01 08:56:67
TRACK 03 AUDIO
TITLE "Atto 1 - Scena 1 - Mina: Ciel ch'io respiri!"
PERFORMER "Shicoff, Vaness, Michaels-Moore, Scandiuzzi, Luisi"
INDEX 01 10:19:20
TRACK 04 AUDIO
TITLE "Atto 1 - Scena 1 - Mina: Salvami tu gran Dio!"
PERFORMER "Shicoff, Vaness, Michaels-Moore, Scandiuzzi, Luisi"
INDEX 01 11:59:57
TRACK 05 AUDIO
TITLE "Atto 1 - Scena 1 - Mina: Egli viene!"
PERFORMER "Shicoff, Vaness, Michaels-Moore, Scandiuzzi, Luisi"
INDEX 00 14:09:57
INDEX 01 14:10:67
TRACK 06 AUDIO
TITLE "Atto 1 - Scena 1 - Aroldo: Sotto il sol di Siria ardente"
PERFORMER "Shicoff, Vaness, Michaels-Moore, Scandiuzzi, Luisi"
INDEX 01 16:01:52
TRACK 07 AUDIO
TITLE "Atto 1 - Scena 1 - Aroldo: Ma lacrime ti grondano"
PERFORMER "Shicoff, Vaness, Michaels-Moore, Scandiuzzi, Luisi"
INDEX 01 18:31:05
TRACK 08 AUDIO
TITLE "Atto 1 - Scena 1 - Aroldo: ebben parlatemi..."
PERFORMER "Shicoff, Vaness, Michaels-Moore, Scandiuzzi, Luisi"
INDEX 01 20:22:55
TRACK 09 AUDIO
TITLE "Atto 1 - Scena 1 - Mina: Tosto ei disse!"
PERFORMER "Shicoff, Vaness, Michaels-Moore, Scandiuzzi, Luisi"
INDEX 01 24:25:22
TRACK 10 AUDIO
TITLE "Atto 1 - Scena 1 - Egberto: Dite che il fallo a tergere"
PERFORMER "Shicoff, Vaness, Michaels-Moore, Scandiuzzi, Luisi"
INDEX 01 26:33:37
TRACK 11 AUDIO
TITLE "Atto 1 - Scena 1 - Egberto: Ed io pure"
PERFORMER "Shicoff, Vaness, Michaels-Moore, Scandiuzzi, Luisi"
INDEX 00 27:52:35
INDEX 01 27:53:52
TRACK 12 AUDIO
TITLE "Atto 1 - Scena 1 - Egberto: Or meco venite"
PERFORMER "Shicoff, Vaness, Michaels-Moore, Scandiuzzi, Luisi"
INDEX 01 31:36:57
TRACK 13 AUDIO
TITLE "Atto 1 - Scena 2 - Godvino: O Mina tu mi sfuggi"
PERFORMER "Shicoff, Vaness, Michaels-Moore, Scandiuzzi, Luisi"
INDEX 00 34:54:10
INDEX 01 34:55:45
TRACK 14 AUDIO
TITLE "Atto 1 - Scena 2 - Egberto: Eterna vivrа"
PERFORMER "Shicoff, Vaness, Michaels-Moore, Scandiuzzi, Luisi"
INDEX 01 39:32:37
TRACK 15 AUDIO
TITLE "Atto 1 - Scena 2 - Aroldo: Vi fu in Palestina"
PERFORMER "Shicoff, Vaness, Michaels-Moore, Scandiuzzi, Luisi"
INDEX 01 40:43:07
TRACK 16 AUDIO
TITLE "Atto 1 - Scena 2 - Aroldo: Forse d'un traditore"
PERFORMER "Shicoff, Vaness, Michaels-Moore, Scandiuzzi, Luisi"
INDEX 01 42:55:27
TRACK 17 AUDIO
TITLE "Atto 1 - Scena 2 - Aroldo: Nol volete"
PERFORMER "Shicoff, Vaness, Michaels-Moore, Scandiuzzi, Luisi"
INDEX 01 46:51:07
TRACK 18 AUDIO
TITLE "Atto 2 - Mina: Oh cielo!"
PERFORMER "Shicoff, Vaness, Michaels-Moore, Scandiuzzi, Luisi"
INDEX 00 49:43:30
INDEX 01 49:48:47
TRACK 19 AUDIO
TITLE "Atto 2 - Mina: Ah dagli scanni eterei"
PERFORMER "Shicoff, Vaness, Michaels-Moore, Scandiuzzi, Luisi"
INDEX 01 54:34:40
TRACK 20 AUDIO
TITLE "Atto 2 - Godvino: Mina,voi qui!"
PERFORMER "Shicoff, Vaness, Michaels-Moore, Scandiuzzi, Luisi"
INDEX 01 57:55:47
TRACK 21 AUDIO
TITLE "Atto 2 - Godvino: Io resto..."
PERFORMER "Shicoff, Vaness, Michaels-Moore, Scandiuzzi, Luisi"
INDEX 01 62:57:72
TRACK 22 AUDIO
TITLE "Atto 2 - Aroldo: Nessun demone"
PERFORMER "Shicoff, Vaness, Michaels-Moore, Scandiuzzi, Luisi"
INDEX 01 65:16:57
TRACK 23 AUDIO
TITLE "Atto 2 - Aroldo: Ah no!"
PERFORMER "Shicoff, Vaness, Michaels-Moore, Scandiuzzi, Luisi"
INDEX 01 68:40:20
TRACK 24 AUDIO
TITLE "Atto 2 - Egberto: Dessa no n и"
PERFORMER "Shicoff, Vaness, Michaels-Moore, Scandiuzzi, Luisi"
INDEX 01 71:45:27

Содержание индексной карты (.CUE) CD 2

REM GENRE Opera
REM DATE 2001
REM DISCID CC0B810F
REM COMMENT "ExactAudioCopy v1.0b3"
PERFORMER "Shicoff, Vaness, Michaels-Moore, Scandiuzzi, Luisi"
TITLE "Verdi - Aroldo (CD 2)"
FILE "Verdi - Aroldo (CD 2) - Luisi.flac" WAVE
TRACK 01 AUDIO
TITLE "Atto 3 - Egberto: Ei fugge!"
PERFORMER "Shicoff, Vaness, Michaels-Moore, Scandiuzzi, Luisi"
INDEX 01 00:00:00
TRACK 02 AUDIO
TITLE "Atto 3 - Egberto: Mina,pensai che un angelo"
PERFORMER "Shicoff, Vaness, Michaels-Moore, Scandiuzzi, Luisi"
INDEX 00 03:22:37
INDEX 01 03:23:62
TRACK 03 AUDIO
TITLE "Atto 3 - Egberto: Ah,si finisca..."
PERFORMER "Shicoff, Vaness, Michaels-Moore, Scandiuzzi, Luisi"
INDEX 01 06:55:00
TRACK 04 AUDIO
TITLE "Atto 3 - Egberto: Oh gioia inesprimibile"
PERFORMER "Shicoff, Vaness, Michaels-Moore, Scandiuzzi, Luisi"
INDEX 01 08:27:25
TRACK 05 AUDIO
TITLE "Atto 3 - Aroldo: L'istante s'avvicina"
PERFORMER "Shicoff, Vaness, Michaels-Moore, Scandiuzzi, Luisi"
INDEX 00 10:32:17
INDEX 01 10:34:25
TRACK 06 AUDIO
TITLE "Atto 3 - Aroldo: Inevitabil fu questo"
PERFORMER "Shicoff, Vaness, Michaels-Moore, Scandiuzzi, Luisi"
INDEX 01 13:04:22
TRACK 07 AUDIO
TITLE "Atto 3 - Mina: Non allo sposo"
PERFORMER "Shicoff, Vaness, Michaels-Moore, Scandiuzzi, Luisi"
INDEX 01 19:04:07
TRACK 08 AUDIO
TITLE "Atto 4 - Aroldo: Cade il giorno"
PERFORMER "Shicoff, Vaness, Michaels-Moore, Scandiuzzi, Luisi"
INDEX 00 24:22:15
INDEX 01 24:26:15
TRACK 09 AUDIO
TITLE "Atto 4 - Aroldo: Cantan felici!"
PERFORMER "Shicoff, Vaness, Michaels-Moore, Scandiuzzi, Luisi"
INDEX 01 28:58:67
TRACK 10 AUDIO
TITLE "Atto 4 - Aroldo: Angiol di Dio"
PERFORMER "Shicoff, Vaness, Michaels-Moore, Scandiuzzi, Luisi"
INDEX 01 30:36:35
TRACK 11 AUDIO
TITLE "Atto 4 - Coro: Al lago"
PERFORMER "Shicoff, Vaness, Michaels-Moore, Scandiuzzi, Luisi"
INDEX 00 33:37:47
INDEX 01 33:41:27
TRACK 12 AUDIO
TITLE "Atto 4 - Bussate a quella porta"
PERFORMER "Shicoff, Vaness, Michaels-Moore, Scandiuzzi, Luisi"
INDEX 00 37:43:50
INDEX 01 37:45:22
TRACK 13 AUDIO
TITLE "Atto 4 - Egberto: Ah piщ non reggo!"
PERFORMER "Shicoff, Vaness, Michaels-Moore, Scandiuzzi, Luisi"
INDEX 00 38:27:52
INDEX 01 38:28:57
TRACK 14 AUDIO
TITLE "Atto 4 - Aroldo: Chi v'ha?"
PERFORMER "Shicoff, Vaness, Michaels-Moore, Scandiuzzi, Luisi"
INDEX 01 40:16:02
TRACK 15 AUDIO
TITLE "Atto 4 - Mina: Allora che gli anni"
PERFORMER "Shicoff, Vaness, Michaels-Moore, Scandiuzzi, Luisi"
INDEX 01 44:56:35

Треклист

Disc 1:
1. Sinfonia
Act 1:
2. "Tocchiamo!"
3. "Ciel, ch'io respiri"
4. "Salvami tu, gran Dio!"
5. "Egli viene!"
6. "Sotto il sol di Siria ardente"
7. "Ma! lacrime ti grodano!"
8. "Ebben, parlatemi"
9. "Tosto ei disse!"
10. "Dite che il fallo a tergere"
11. "Ed io pure in faccia agl'uomini"
12. "Or meco venite"
13. "O Mina, tu mi sfuggi"
14. "Eterna vivrà in Kent la memoria"
15. "Vi fu in Palestina"
16. "Forse d'un traditore"
17. "Nol volete? Farollo io stesso"
Act 2:
18. "Oh cielo! Dove son io?"
19. "Ah! dagli scanni eterei"
20. "Mina!"
21. "Io resto"
22 "Nessun demone, niun Dio"
23. "Ah no! è impossibile!"
24. "Dessa non è, comprendilo"
Disc 2:
Act 3:
1. "Ei fugge!"
2. "Mina, pensai che un angelo"
3. "Ah, di finisca"
4. "Oh gioia inesprimibile"
5. "L'istante s'avvicina"
6. "Inevitabil fu questo colloquio"
7. "Non allo sposo"
Act 4:
8."Cade il giorno"
9. "Cantan felici"
10. "Angiol di Dio, custode mio"
11. "Burrasca"
12. "Bussate a quella porta"
13. "Ah! più non reggo!"
14. "Chi v'ha?"
15. "Allora che gl'anni"



Показать сообщения:    

Текущее время: 08-Дек 19:11

Часовой пояс: UTC + 3


Вы не можете начинать темы
Вы не можете отвечать на сообщения
Вы не можете редактировать свои сообщения
Вы не можете удалять свои сообщения
Вы не можете голосовать в опросах
Вы не можете прикреплять файлы к сообщениям
Вы не можете скачивать файлы