[TR24][OF] Jonas Kaufmann - The Age of Puccini (Collection of Verismo Arias by Cilea, Giordano, Mascagni, Ponchielli, Leoncavallo, Zandonai), Antonio Pappano/Marco Armiliato - 2015 (Opera, Vocal)


Статистика раздачи [Обновить пиров]
Размер:  788 MB   |    Зарегистрирован:  8 месяцев 14 дней   |    Скачан:  0 раз

Полного источника не было: Никогда

 
   
 
 
 

[Цитировать]

Jonas Kaufmann - The Age of Puccini (Collection of Verismo Arias by Cilea, Giordano, Mascagni, Leoncavallo)
Формат записи/Источник записи: [TR24][OF]
Наличие водяных знаков: Нет
Год издания/переиздания диска: 2015
Жанр: Opera, Vocal
Издатель(лейбл): DECCA
Продолжительность: 01:16:06
Исполнители:
Jonas Kaufmann, tenor,
Orchestra dell'Accademia di Santa Cecilia, conducted by Antonio Pappano,
Prague Philharmonic Orchestra, conducted by Marco Armiliato (tracks 1, 2).
Recorded on March 18, 2010 - March 22, 2010, at Rome, Auditorium Parco della Musica, Petrassi Hall and at Rudolfinum, Prague, 5-6 August, 2007 (tracks 1, 2).
DECCA presents the compilation of Highlights from Verismo Opera, performed by Jonas Kaufmann during his being the DECCA-Artist. This Album includes Puccini's Arias, recorded for DECCA in 2007 under the button of maestro Marco Armiliato (as a part of Album "Romantis Arias") and CD "Verismo Arias", released in 2010 in cooperation with Antonio Pappano.

Источник: Presto Classical
Контейнер: FLAC (*.flac)
Тип рипа: tracks
Разрядность: 24/48
Количество каналов: 2.0

Dynamic Range Meter

foobar2000 1.3.6 / Замер динамического диапазона (DR) 1.1.1
Дата отчёта: 2015-08-22 20:38:24
--------------------------------------------------------------------------------
Анализ: Cristina Reale / The Age of Puccini: Jonas Kaufmann (1)
Eva-Maria Westbroek / The Age of Puccini: Jonas Kaufmann (2)
Orchestra dell'Accademia Nazionale di Santa Cecilia / The Age of Puccini: Jonas Kaufmann (3-17)
Prague Philharmonic Orchestra / The Age of Puccini: Jonas Kaufmann (18-19)
Renée Fleming / The Age of Puccini: Jonas Kaufmann (20)
Rosa Feola / The Age of Puccini: Jonas Kaufmann (21)
--------------------------------------------------------------------------------
DR Пики RMS Продолжительность трека
--------------------------------------------------------------------------------
DR13 -0.20 дБ -18.18 дБ 3:48 10-Cavalleria rusticana: 'Mamma, quel vino è generoso'
DR11 -0.20 дБ -15.57 дБ 7:18 20-Andrea Chénier / Act 4: 'Vicino a te s'acqueta'
DR13 -1.81 дБ -20.39 дБ 2:32 04-I Lituani / Act 3: 'Sì...questa estrema grazia'
DR14 -0.20 дБ -20.31 дБ 5:26 05-La Gioconda / Act 2: 'Cielo e mar'
DR13 -0.63 дБ -20.36 дБ 2:35 06-Mefistofele / Act 1: 'Dai campi, dai prati'
DR14 -1.44 дБ -22.90 дБ 3:24 07-Mefistofele / Act 4: 'Giunto sul passo estremo'
DR14 -2.36 дБ -21.92 дБ 2:44 08-Iris / Act 1: 'Apri la tua finestra!'
DR12 -0.20 дБ -16.30 дБ 3:42 11-Pagliacci / Act 1: 'Recitar!...Vesti la giubba'
DR13 -0.20 дБ -17.98 дБ 3:22 12-La bohème / Act 3: 'Musetta! O gioia della mia dimora! - Testa adorata'
DR12 -1.56 дБ -20.56 дБ 4:35 13-L'Arlesiana / Act 2: 'E la solita storia'
DR12 -0.88 дБ -19.45 дБ 2:03 14-Adriana Lecouvreur / Act 2: L'anima ho stanca
DR13 -0.72 дБ -20.57 дБ 2:31 15-Adriana Lecouvreur / Act 1: 'La dolcissima effigie'
DR13 -0.66 дБ -19.93 дБ 4:46 16-Giulietta e Romeo / Act 3: 'Giulietta! Son io!'
DR13 -0.68 дБ -18.24 дБ 1:49 17-Fedora / Act 2: 'Amor ti vieta'
DR12 -0.20 дБ -17.14 дБ 4:54 18-Andrea Chénier / Act 1: 'Colpito qui m'avete … Un dì all’azzurro spazio'
DR12 -0.53 дБ -18.35 дБ 2:53 19-Andrea Chénier / Act 4: 'Come un bel dì di maggio'
DR14 -1.69 дБ -22.93 дБ 3:24 21-'Ombra di nube'
DR10 -1.53 дБ -17.01 дБ 5:12 01-La Bohème / Act 1: 'Che gelida manina'
DR10 -1.53 дБ -17.48 дБ 3:23 02-Tosca / Act 3: 'E lucevan le stelle'
DR9 -0.22 дБ -13.42 дБ 3:05 03-La Rondine / Act 2: 'Bevo al tuo fresco sorriso'
DR11 -0.55 дБ -15.11 дБ 2:50 09-Cavalleria rusticana: 'Intanto, amici, qua...Viva il vino spumeggiante'
--------------------------------------------------------------------------------
Количество треков: 21
Реальные значения DR: DR12
Частота: 48000 Гц
Каналов: 2
Разрядность: 24
Битрейт: 1538 кбит/с
Кодек: FLAC
================================================================================

Треклист

Giacomo Puccini:
1. Che gelida manina (La Bohème)
2. E lucevan le stelle (Tosca)
3. Bevo al tuo fresco sorriso (La Rondine)
Amilcare Ponchielli:
4. Sì, questa estrema grazia (I Lituani)
5. Cielo e mar! (La Gioconda)
Arrigo Boito:
6. Dai campi, dai prati (Mefistofele)
7. Giunto sul passo estremo (Mefistofele)
Pietro Mascagni:
8. Apri la tua finestra (Iris)
9. Drinking song (Cavalleria Rusticana)
10. Mamma! Mamma, quel vino è generoso (Cavalleria Rusticana)
Ruggero Leoncavallo:
11. Vesti la giubba (Pagliacci)
12. Testa adorata (La Bohème)
Francesco Cilea:
13. Lamento di Federico (L'Arlesiana)
Francesco Cilea:
14. L'anima ho stanca (Adriana Lecouvreur)
15. La dolcissima effigie (Adriana Lecouvreur)
16. Riccardo Zandonai - Giulietta, son io (Giulietta e Romeo)
Umberto Giordano:
17. Amor ti vieta (Fedora)
18. Un di all'azzurro spazio (Andrea Chénier)
19. Come un bel dì di maggio (Andrea Chénier)
20. Vicino a te (Andrea Chénier)
21. Licinio Refice - Ombra di Nube
[teatrix.ru].t22063.torrent 
Торрент: Зарегистрирован [ 2016-03-20 12:45 ] · ADCCA822444FEF90438AFE6287A26A21AFC3B450

Скачать .torrent

Скачать

18 KB

Статус: проверено
Скачан: 0 раз
Размер: 788 MB
terms.php



Быстрый ответ

Имя:

      
Для отправки сообщений необходимо включить JavaScript
Показать сообщения:    

Текущее время: 04-Дек 02:55

Часовой пояс: UTC + 3


Вы можете начинать темы
Вы можете отвечать на сообщения
Вы не можете редактировать свои сообщения
Вы не можете удалять свои сообщения
Вы не можете голосовать в опросах
Вы не можете прикреплять файлы к сообщениям
Вы можете скачивать файлы