(Opera) Giuseppe Verdi - Macbeth / Джузеппе Верди - Макбет (Lamberto Gardelli; London Philharmonic Orchestra; Dietrich Fischer-Dieskau, Nicolai Ghiaurov, Elena Souliotis, Luciano Pavarotti), 1970 - Studio recording / 1999, FLAC (tracks+.cue),lossless


 

[Цитировать]

Giuseppe Verdi - Macbeth / Джузеппе Верди - Макбет (Lamberto Gardelli; London Philharmonic Orchestra; Dietrich Fischer-Dieskau, Nicolai Ghiaurov, Elena Souliotis, Luciano Pavarotti)
Жанр: Opera
Страна-производитель диска: CША
Год издания диска: 1999
Издатель (лейбл): DECCA
Дата записи: 1970
Аудиокодек: FLAC
Тип рипа: tracks+.cue
Битрейт аудио: lossless
Продолжительность: 147:15
Источник: релизер (jbglx)
Исполнители:
Macbeth - Dietrich Fischer-Dieskau,
Bancquo - Nicolai Ghiaurov,
Lady Macbeth - Elena Souliotis,
Macduff - Luciano Pavarotti,
Malcolm - Riccardo Cassinelli,
Lady Macbeth’s Attendant - Helen Lawrence,
Doctor - Raymond Myers,
Macbeth’s Servant - John Noble,
Assassin - Leslie Fyson,
Herald - David Reed,
Apparitions - John Noble, Andrew Dance, Peter Marsland.
Lamberto Gardelli, Conductor,
London Philharmonic Orchestra,
Ambrosian Opera Chorus.
Recorded at Kingsway Hall, London, 17-22, 24-28 August, 1970. Paris Version - 1865.

Лог создания рипаЛог создания рипа CD 1

Exact Audio Copy V1.0 beta 3 from 29. August 2011
EAC extraction logfile from 6. August 2013, 8:59
Fischer-Dieskau Souliotis Pavarotti / Macbeth
Used drive : SONY DVD RW DRU-840A Adapter: 0 ID: 1
Read mode : Secure
Utilize accurate stream : Yes
Defeat audio cache : Yes
Make use of C2 pointers : No
Read offset correction : 6
Overread into Lead-In and Lead-Out : No
Fill up missing offset samples with silence : Yes
Delete leading and trailing silent blocks : No
Null samples used in CRC calculations : Yes
Used interface : Native Win32 interface for Win NT & 2000
Gap handling : Appended to previous track
Used output format : User Defined Encoder
Selected bitrate : 320 kBit/s
Quality : High
Add ID3 tag : No
Command line compressor : C:\Archivos de programa\Exact Audio Copy\FLAC\FLAC.EXE
Additional command line options : -6 -V -T "ARTIST=%artist%" -T "TITLE=%title%" -T "ALBUM=%albumtitle%" -T "DATE=%year%" -T "TRACKNUMBER=%tracknr%" -T "GENRE=%genre%" -T "COMMENT=%comment%" -T "BAND=%albuminterpret%" -T "ALBUMARTIST=%albuminterpret%" -T "COMPOSER=%composer%" %haslyrics%--tag-from-file=LYRICS="%lyricsfile%"%haslyrics% -T "DISCNUMBER=%cdnumber%" -T "TOTALDISCS=%totalcds%" -T "TOTALTRACKS=%numtracks%" %hascover%--picture="%coverfile%"%hascover% %source% -o %dest%
TOC of the extracted CD
Track | Start | Length | Start sector | End sector
---------------------------------------------------------
1 | 0:00.00 | 3:19.12 | 0 | 14936
2 | 3:19.12 | 3:29.28 | 14937 | 30639
3 | 6:48.40 | 7:27.42 | 30640 | 64206
4 | 14:16.07 | 2:06.30 | 64207 | 73686
5 | 16:22.37 | 9:17.12 | 73687 | 115473
6 | 25:39.49 | 3:26.58 | 115474 | 130981
7 | 29:06.32 | 11:14.06 | 130982 | 181537
8 | 40:20.38 | 7:42.00 | 181538 | 216187
9 | 48:02.38 | 6:39.05 | 216188 | 246117
10 | 54:41.43 | 2:59.17 | 246118 | 259559
11 | 57:40.60 | 4:25.58 | 259560 | 279492
12 | 62:06.43 | 15:17.13 | 279493 | 348280
Track 1
Filename E:\MUSIC\My Music\Verdi - Macbeth - Souliotis - Fischer-Dieskau - Gardelli\CD 1\01 Preludium.wav
Peak level 89.1 %
Extraction speed 4.7 X
Track quality 100.0 %
Test CRC 034D7A08
Copy CRC 034D7A08
Track not present in AccurateRip database
Copy OK
Track 2
Filename E:\MUSIC\My Music\Verdi - Macbeth - Souliotis - Fischer-Dieskau - Gardelli\CD 1\02 Che faceste dite su!.wav
Peak level 92.2 %
Extraction speed 5.1 X
Track quality 100.0 %
Test CRC DA9D4C10
Copy CRC DA9D4C10
Track not present in AccurateRip database
Copy OK
Track 3
Filename E:\MUSIC\My Music\Verdi - Macbeth - Souliotis - Fischer-Dieskau - Gardelli\CD 1\03 Giorno non vidi mai sí fiero e bello!.wav
Peak level 91.1 %
Extraction speed 6.1 X
Track quality 100.0 %
Test CRC 1159DDD1
Copy CRC 1159DDD1
Track not present in AccurateRip database
Copy OK
Track 4
Filename E:\MUSIC\My Music\Verdi - Macbeth - Souliotis - Fischer-Dieskau - Gardelli\CD 1\04 S'allontanarono! N'accozzeremo.wav
Peak level 91.3 %
Extraction speed 5.5 X
Track quality 100.0 %
Test CRC BCF942F2
Copy CRC BCF942F2
Track not present in AccurateRip database
Copy OK
Track 5
Filename E:\MUSIC\My Music\Verdi - Macbeth - Souliotis - Fischer-Dieskau - Gardelli\CD 1\05 Nel dí della vittoria io le incontrai.wav
Peak level 91.6 %
Extraction speed 7.2 X
Track quality 100.0 %
Test CRC F2AE6EDC
Copy CRC F2AE6EDC
Track not present in AccurateRip database
Copy OK
Track 6
Filename E:\MUSIC\My Music\Verdi - Macbeth - Souliotis - Fischer-Dieskau - Gardelli\CD 1\06 Oh donna mia!.wav
Peak level 59.8 %
Extraction speed 6.9 X
Track quality 100.0 %
Test CRC 1842EC4F
Copy CRC 1842EC4F
Track not present in AccurateRip database
Copy OK
Track 7
Filename E:\MUSIC\My Music\Verdi - Macbeth - Souliotis - Fischer-Dieskau - Gardelli\CD 1\07 Sappia la sposa mia che, pronto appena.wav
Peak level 90.1 %
Extraction speed 8.4 X
Track quality 100.0 %
Test CRC 3D8F7856
Copy CRC 3D8F7856
Track not present in AccurateRip database
Copy OK
Track 8
Filename E:\MUSIC\My Music\Verdi - Macbeth - Souliotis - Fischer-Dieskau - Gardelli\CD 1\08 De destarlo per temp il re m'imposa.wav
Peak level 91.4 %
Extraction speed 8.8 X
Track quality 100.0 %
Test CRC D4F00765
Copy CRC D4F00765
Track not present in AccurateRip database
Copy OK
Track 9
Filename E:\MUSIC\My Music\Verdi - Macbeth - Souliotis - Fischer-Dieskau - Gardelli\CD 1\09 Perché mi sfuggi.wav
Peak level 91.4 %
Extraction speed 7.8 X
Track quality 99.9 %
Test CRC 48F7D502
Copy CRC 48F7D502
Track not present in AccurateRip database
Copy OK
Track 10
Filename E:\MUSIC\My Music\Verdi - Macbeth - Souliotis - Fischer-Dieskau - Gardelli\CD 1\10 Chi v'imposa unirvi a noi.wav
Peak level 78.2 %
Extraction speed 8.5 X
Track quality 100.0 %
Test CRC 387134F1
Copy CRC 387134F1
Track not present in AccurateRip database
Copy OK
Track 11
Filename E:\MUSIC\My Music\Verdi - Macbeth - Souliotis - Fischer-Dieskau - Gardelli\CD 1\11 Studia il passo, o mio figlio.wav
Peak level 86.9 %
Extraction speed 9.2 X
Track quality 100.0 %
Test CRC 1A26DA67
Copy CRC 1A26DA67
Track not present in AccurateRip database
Copy OK
Track 12
Filename E:\MUSIC\My Music\Verdi - Macbeth - Souliotis - Fischer-Dieskau - Gardelli\CD 1\12 Salve, o Re!.wav
Peak level 91.4 %
Extraction speed 10.7 X
Track quality 100.0 %
Test CRC 9882B038
Copy CRC 9882B038
Track not present in AccurateRip database
Copy OK
None of the tracks are present in the AccurateRip database
No errors occurred
End of status report
==== Log checksum F93CD93AD8D1F536F47E0D81A8633DCAA40BF0E8857FB339FA9AD549C9F97E18 ====
------------------------------------------------------------
Exact Audio Copy V1.0 beta 3 from 29. August 2011
EAC extraction logfile from 6. August 2013, 9:00
Fischer-Dieskau Souliotis Pavarotti / Macbeth
Used drive : SONY DVD RW DRU-840A Adapter: 0 ID: 1
Read mode : Secure
Utilize accurate stream : Yes
Defeat audio cache : Yes
Make use of C2 pointers : No
Read offset correction : 6
Overread into Lead-In and Lead-Out : No
Fill up missing offset samples with silence : Yes
Delete leading and trailing silent blocks : No
Null samples used in CRC calculations : Yes
Used interface : Native Win32 interface for Win NT & 2000
Gap handling : Not detected, thus appended to previous track
Used output format : User Defined Encoder
Selected bitrate : 320 kBit/s
Quality : High
Add ID3 tag : No
Command line compressor : C:\Archivos de programa\Exact Audio Copy\FLAC\FLAC.EXE
Additional command line options : -6 -V -T "ARTIST=%artist%" -T "TITLE=%title%" -T "ALBUM=%albumtitle%" -T "DATE=%year%" -T "TRACKNUMBER=%tracknr%" -T "GENRE=%genre%" -T "COMMENT=%comment%" -T "BAND=%albuminterpret%" -T "ALBUMARTIST=%albuminterpret%" -T "COMPOSER=%composer%" %haslyrics%--tag-from-file=LYRICS="%lyricsfile%"%haslyrics% -T "DISCNUMBER=%cdnumber%" -T "TOTALDISCS=%totalcds%" -T "TOTALTRACKS=%numtracks%" %hascover%--picture="%coverfile%"%hascover% %source% -o %dest%
TOC of the extracted CD
Track | Start | Length | Start sector | End sector
---------------------------------------------------------
1 | 0:00.00 | 3:19.12 | 0 | 14936
2 | 3:19.12 | 3:29.28 | 14937 | 30639
3 | 6:48.40 | 7:27.42 | 30640 | 64206
4 | 14:16.07 | 2:06.30 | 64207 | 73686
5 | 16:22.37 | 9:17.12 | 73687 | 115473
6 | 25:39.49 | 3:26.58 | 115474 | 130981
7 | 29:06.32 | 11:14.06 | 130982 | 181537
8 | 40:20.38 | 7:42.00 | 181538 | 216187
9 | 48:02.38 | 6:39.05 | 216188 | 246117
10 | 54:41.43 | 2:59.17 | 246118 | 259559
11 | 57:40.60 | 4:25.58 | 259560 | 279492
12 | 62:06.43 | 15:17.13 | 279493 | 348280
Track 1
Filename E:\MUSIC\My Music\Verdi - Macbeth - Souliotis - Fischer-Dieskau - Gardelli\CD 1\01 Preludium.wav
Peak level 89.1 %
Extraction speed 4.7 X
Track quality 100.0 %
Test CRC 034D7A08
Copy CRC 034D7A08
Track not present in AccurateRip database
Copy OK
Track 2
Filename E:\MUSIC\My Music\Verdi - Macbeth - Souliotis - Fischer-Dieskau - Gardelli\CD 1\02 Che faceste dite su!.wav
Peak level 92.2 %
Extraction speed 5.1 X
Track quality 100.0 %
Test CRC DA9D4C10
Copy CRC DA9D4C10
Track not present in AccurateRip database
Copy OK
Track 3
Filename E:\MUSIC\My Music\Verdi - Macbeth - Souliotis - Fischer-Dieskau - Gardelli\CD 1\03 Giorno non vidi mai sí fiero e bello!.wav
Peak level 91.1 %
Extraction speed 6.1 X
Track quality 100.0 %
Test CRC 1159DDD1
Copy CRC 1159DDD1
Track not present in AccurateRip database
Copy OK
Track 4
Filename E:\MUSIC\My Music\Verdi - Macbeth - Souliotis - Fischer-Dieskau - Gardelli\CD 1\04 S'allontanarono! N'accozzeremo.wav
Peak level 91.3 %
Extraction speed 5.5 X
Track quality 100.0 %
Test CRC BCF942F2
Copy CRC BCF942F2
Track not present in AccurateRip database
Copy OK
Track 5
Filename E:\MUSIC\My Music\Verdi - Macbeth - Souliotis - Fischer-Dieskau - Gardelli\CD 1\05 Nel dí della vittoria io le incontrai.wav
Peak level 91.6 %
Extraction speed 7.2 X
Track quality 100.0 %
Test CRC F2AE6EDC
Copy CRC F2AE6EDC
Track not present in AccurateRip database
Copy OK
Track 6
Filename E:\MUSIC\My Music\Verdi - Macbeth - Souliotis - Fischer-Dieskau - Gardelli\CD 1\06 Oh donna mia!.wav
Peak level 59.8 %
Extraction speed 6.9 X
Track quality 100.0 %
Test CRC 1842EC4F
Copy CRC 1842EC4F
Track not present in AccurateRip database
Copy OK
Track 7
Filename E:\MUSIC\My Music\Verdi - Macbeth - Souliotis - Fischer-Dieskau - Gardelli\CD 1\07 Sappia la sposa mia che, pronto appena.wav
Peak level 90.1 %
Extraction speed 8.4 X
Track quality 100.0 %
Test CRC 3D8F7856
Copy CRC 3D8F7856
Track not present in AccurateRip database
Copy OK
Track 8
Filename E:\MUSIC\My Music\Verdi - Macbeth - Souliotis - Fischer-Dieskau - Gardelli\CD 1\08 De destarlo per temp il re m'imposa.wav
Peak level 91.4 %
Extraction speed 8.8 X
Track quality 100.0 %
Test CRC D4F00765
Copy CRC D4F00765
Track not present in AccurateRip database
Copy OK
Track 9
Filename E:\MUSIC\My Music\Verdi - Macbeth - Souliotis - Fischer-Dieskau - Gardelli\CD 1\09 Perché mi sfuggi.wav
Peak level 91.4 %
Extraction speed 7.8 X
Track quality 99.9 %
Test CRC 48F7D502
Copy CRC 48F7D502
Track not present in AccurateRip database
Copy OK
Track 10
Filename E:\MUSIC\My Music\Verdi - Macbeth - Souliotis - Fischer-Dieskau - Gardelli\CD 1\10 Chi v'imposa unirvi a noi.wav
Peak level 78.2 %
Extraction speed 8.5 X
Track quality 100.0 %
Test CRC 387134F1
Copy CRC 387134F1
Track not present in AccurateRip database
Copy OK
Track 11
Filename E:\MUSIC\My Music\Verdi - Macbeth - Souliotis - Fischer-Dieskau - Gardelli\CD 1\11 Studia il passo, o mio figlio.wav
Peak level 86.9 %
Extraction speed 9.2 X
Track quality 100.0 %
Test CRC 1A26DA67
Copy CRC 1A26DA67
Track not present in AccurateRip database
Copy OK
Track 12
Filename E:\MUSIC\My Music\Verdi - Macbeth - Souliotis - Fischer-Dieskau - Gardelli\CD 1\12 Salve, o Re!.wav
Peak level 91.4 %
Extraction speed 10.7 X
Track quality 100.0 %
Test CRC 9882B038
Copy CRC 9882B038
Track not present in AccurateRip database
Copy OK
None of the tracks are present in the AccurateRip database
No errors occurred
End of status report
==== Log checksum 8F3BE5314710A0FD2CEE515328E720FB70AFD788D2E2639DD78242F6F7654B06 ====

Лог создания рипа CD 2

Exact Audio Copy V1.0 beta 3 from 29. August 2011
EAC extraction logfile from 6. August 2013, 8:36
Fischer-Dieskau Souliotis Pavarotti / Macbeth cd 2
Used drive : SONY DVD RW DRU-840A Adapter: 0 ID: 1
Read mode : Secure
Utilize accurate stream : Yes
Defeat audio cache : Yes
Make use of C2 pointers : No
Read offset correction : 6
Overread into Lead-In and Lead-Out : No
Fill up missing offset samples with silence : Yes
Delete leading and trailing silent blocks : No
Null samples used in CRC calculations : Yes
Used interface : Native Win32 interface for Win NT & 2000
Gap handling : Appended to previous track
Used output format : User Defined Encoder
Selected bitrate : 320 kBit/s
Quality : High
Add ID3 tag : No
Command line compressor : C:\Archivos de programa\Exact Audio Copy\FLAC\FLAC.EXE
Additional command line options : -6 -V -T "ARTIST=%artist%" -T "TITLE=%title%" -T "ALBUM=%albumtitle%" -T "DATE=%year%" -T "TRACKNUMBER=%tracknr%" -T "GENRE=%genre%" -T "COMMENT=%comment%" -T "BAND=%albuminterpret%" -T "ALBUMARTIST=%albuminterpret%" -T "COMPOSER=%composer%" %haslyrics%--tag-from-file=LYRICS="%lyricsfile%"%haslyrics% -T "DISCNUMBER=%cdnumber%" -T "TOTALDISCS=%totalcds%" -T "TOTALTRACKS=%numtracks%" %hascover%--picture="%coverfile%"%hascover% %source% -o %dest%
TOC of the extracted CD
Track | Start | Length | Start sector | End sector
---------------------------------------------------------
1 | 0:00.00 | 13:52.00 | 0 | 62399
2 | 13:52.00 | 11:56.38 | 62400 | 116137
3 | 25:48.38 | 4:19.32 | 116138 | 135594
4 | 30:07.70 | 3:26.30 | 135595 | 151074
5 | 33:34.25 | 6:17.62 | 151075 | 179411
6 | 39:52.12 | 6:20.00 | 179412 | 207911
7 | 46:12.12 | 11:06.00 | 207912 | 257861
8 | 57:18.12 | 5:57.62 | 257862 | 284698
9 | 63:15.74 | 3:52.43 | 284699 | 302141
10 | 67:08.42 | 3:43.20 | 302142 | 318886
Track 1
Filename E:\MUSIC\My Music\Verdi - Macbeth - Souliotis - Fischer-Dieskau - Gardelli\CD 2\01 Tre volte miagola la gatta in fregola.wav
Peak level 96.3 %
Extraction speed 2.3 X
Track quality 99.9 %
Test CRC B78655E1
Copy CRC B78655E1
Track not present in AccurateRip database
Copy OK
Track 2
Filename E:\MUSIC\My Music\Verdi - Macbeth - Souliotis - Fischer-Dieskau - Gardelli\CD 2\02 Finché appelli, silenti m'attendete.wav
Peak level 95.8 %
Extraction speed 2.9 X
Track quality 100.0 %
Test CRC 66BE1D9B
Copy CRC 66BE1D9B
Track not present in AccurateRip database
Copy OK
Track 3
Filename E:\MUSIC\My Music\Verdi - Macbeth - Souliotis - Fischer-Dieskau - Gardelli\CD 2\03 Ondine e Silfidi dall'ali candide.wav
Peak level 77.3 %
Extraction speed 2.9 X
Track quality 100.0 %
Test CRC 3851F10C
Copy CRC 3851F10C
Track not present in AccurateRip database
Copy OK
Track 4
Filename E:\MUSIC\My Music\Verdi - Macbeth - Souliotis - Fischer-Dieskau - Gardelli\CD 2\04 Ove son io.wav
Peak level 85.1 %
Extraction speed 2.9 X
Track quality 100.0 %
Test CRC 24F152B8
Copy CRC 24F152B8
Track not present in AccurateRip database
Copy OK
Track 5
Filename E:\MUSIC\My Music\Verdi - Macbeth - Souliotis - Fischer-Dieskau - Gardelli\CD 2\05 Patria oppressa!.wav
Peak level 77.0 %
Extraction speed 2.8 X
Track quality 99.9 %
Test CRC 380F15D5
Copy CRC 380F15D5
Track not present in AccurateRip database
Copy OK
Track 6
Filename E:\MUSIC\My Music\Verdi - Macbeth - Souliotis - Fischer-Dieskau - Gardelli\CD 2\06 O figli, o figli miei!.wav
Peak level 97.9 %
Extraction speed 3.5 X
Track quality 100.0 %
Test CRC CA583D9B
Copy CRC CA583D9B
Track not present in AccurateRip database
Copy OK
Track 7
Filename E:\MUSIC\My Music\Verdi - Macbeth - Souliotis - Fischer-Dieskau - Gardelli\CD 2\07 Vegliammo invan due notti.wav
Peak level 75.9 %
Extraction speed 3.4 X
Track quality 99.9 %
Test CRC D5B1438E
Copy CRC D5B1438E
Track not present in AccurateRip database
Copy OK
Track 8
Filename E:\MUSIC\My Music\Verdi - Macbeth - Souliotis - Fischer-Dieskau - Gardelli\CD 2\08 Perfidi! All'angelo contra me v'unite.wav
Peak level 81.6 %
Extraction speed 3.9 X
Track quality 100.0 %
Test CRC FAE4B3C6
Copy CRC FAE4B3C6
Track not present in AccurateRip database
Copy OK
Track 9
Filename E:\MUSIC\My Music\Verdi - Macbeth - Souliotis - Fischer-Dieskau - Gardelli\CD 2\09 Ella é morta.wav
Peak level 85.4 %
Extraction speed 3.6 X
Track quality 100.0 %
Test CRC 7EEE2C0E
Copy CRC 7EEE2C0E
Track not present in AccurateRip database
Copy OK
Track 10
Filename E:\MUSIC\My Music\Verdi - Macbeth - Souliotis - Fischer-Dieskau - Gardelli\CD 2\10 Vittoria!.wav
Peak level 90.2 %
Extraction speed 3.9 X
Track quality 100.0 %
Test CRC 2F9F8552
Copy CRC 2F9F8552
Track not present in AccurateRip database
Copy OK
None of the tracks are present in the AccurateRip database
No errors occurred
End of status report
==== Log checksum D81A5F863BEF4E6D2AA188EB4B381B3C8B4BA53965D42FC8B4E9BCF9584142BF ====
------------------------------------------------------------
Exact Audio Copy V1.0 beta 3 from 29. August 2011
EAC extraction logfile from 6. August 2013, 8:37
Fischer-Dieskau Souliotis Pavarotti / Macbeth cd 2
Used drive : SONY DVD RW DRU-840A Adapter: 0 ID: 1
Read mode : Secure
Utilize accurate stream : Yes
Defeat audio cache : Yes
Make use of C2 pointers : No
Read offset correction : 6
Overread into Lead-In and Lead-Out : No
Fill up missing offset samples with silence : Yes
Delete leading and trailing silent blocks : No
Null samples used in CRC calculations : Yes
Used interface : Native Win32 interface for Win NT & 2000
Gap handling : Not detected, thus appended to previous track
Used output format : User Defined Encoder
Selected bitrate : 320 kBit/s
Quality : High
Add ID3 tag : No
Command line compressor : C:\Archivos de programa\Exact Audio Copy\FLAC\FLAC.EXE
Additional command line options : -6 -V -T "ARTIST=%artist%" -T "TITLE=%title%" -T "ALBUM=%albumtitle%" -T "DATE=%year%" -T "TRACKNUMBER=%tracknr%" -T "GENRE=%genre%" -T "COMMENT=%comment%" -T "BAND=%albuminterpret%" -T "ALBUMARTIST=%albuminterpret%" -T "COMPOSER=%composer%" %haslyrics%--tag-from-file=LYRICS="%lyricsfile%"%haslyrics% -T "DISCNUMBER=%cdnumber%" -T "TOTALDISCS=%totalcds%" -T "TOTALTRACKS=%numtracks%" %hascover%--picture="%coverfile%"%hascover% %source% -o %dest%
TOC of the extracted CD
Track | Start | Length | Start sector | End sector
---------------------------------------------------------
1 | 0:00.00 | 13:52.00 | 0 | 62399
2 | 13:52.00 | 11:56.38 | 62400 | 116137
3 | 25:48.38 | 4:19.32 | 116138 | 135594
4 | 30:07.70 | 3:26.30 | 135595 | 151074
5 | 33:34.25 | 6:17.62 | 151075 | 179411
6 | 39:52.12 | 6:20.00 | 179412 | 207911
7 | 46:12.12 | 11:06.00 | 207912 | 257861
8 | 57:18.12 | 5:57.62 | 257862 | 284698
9 | 63:15.74 | 3:52.43 | 284699 | 302141
10 | 67:08.42 | 3:43.20 | 302142 | 318886
Track 1
Filename E:\MUSIC\My Music\Verdi - Macbeth - Souliotis - Fischer-Dieskau - Gardelli\CD 2\01 Tre volte miagola la gatta in fregola.wav
Peak level 96.3 %
Extraction speed 2.3 X
Track quality 99.9 %
Test CRC B78655E1
Copy CRC B78655E1
Track not present in AccurateRip database
Copy OK
Track 2
Filename E:\MUSIC\My Music\Verdi - Macbeth - Souliotis - Fischer-Dieskau - Gardelli\CD 2\02 Finché appelli, silenti m'attendete.wav
Peak level 95.8 %
Extraction speed 2.9 X
Track quality 100.0 %
Test CRC 66BE1D9B
Copy CRC 66BE1D9B
Track not present in AccurateRip database
Copy OK
Track 3
Filename E:\MUSIC\My Music\Verdi - Macbeth - Souliotis - Fischer-Dieskau - Gardelli\CD 2\03 Ondine e Silfidi dall'ali candide.wav
Peak level 77.3 %
Extraction speed 2.9 X
Track quality 100.0 %
Test CRC 3851F10C
Copy CRC 3851F10C
Track not present in AccurateRip database
Copy OK
Track 4
Filename E:\MUSIC\My Music\Verdi - Macbeth - Souliotis - Fischer-Dieskau - Gardelli\CD 2\04 Ove son io.wav
Peak level 85.1 %
Extraction speed 2.9 X
Track quality 100.0 %
Test CRC 24F152B8
Copy CRC 24F152B8
Track not present in AccurateRip database
Copy OK
Track 5
Filename E:\MUSIC\My Music\Verdi - Macbeth - Souliotis - Fischer-Dieskau - Gardelli\CD 2\05 Patria oppressa!.wav
Peak level 77.0 %
Extraction speed 2.8 X
Track quality 99.9 %
Test CRC 380F15D5
Copy CRC 380F15D5
Track not present in AccurateRip database
Copy OK
Track 6
Filename E:\MUSIC\My Music\Verdi - Macbeth - Souliotis - Fischer-Dieskau - Gardelli\CD 2\06 O figli, o figli miei!.wav
Peak level 97.9 %
Extraction speed 3.5 X
Track quality 100.0 %
Test CRC CA583D9B
Copy CRC CA583D9B
Track not present in AccurateRip database
Copy OK
Track 7
Filename E:\MUSIC\My Music\Verdi - Macbeth - Souliotis - Fischer-Dieskau - Gardelli\CD 2\07 Vegliammo invan due notti.wav
Peak level 75.9 %
Extraction speed 3.4 X
Track quality 99.9 %
Test CRC D5B1438E
Copy CRC D5B1438E
Track not present in AccurateRip database
Copy OK
Track 8
Filename E:\MUSIC\My Music\Verdi - Macbeth - Souliotis - Fischer-Dieskau - Gardelli\CD 2\08 Perfidi! All'angelo contra me v'unite.wav
Peak level 81.6 %
Extraction speed 3.9 X
Track quality 100.0 %
Test CRC FAE4B3C6
Copy CRC FAE4B3C6
Track not present in AccurateRip database
Copy OK
Track 9
Filename E:\MUSIC\My Music\Verdi - Macbeth - Souliotis - Fischer-Dieskau - Gardelli\CD 2\09 Ella é morta.wav
Peak level 85.4 %
Extraction speed 3.6 X
Track quality 100.0 %
Test CRC 7EEE2C0E
Copy CRC 7EEE2C0E
Track not present in AccurateRip database
Copy OK
Track 10
Filename E:\MUSIC\My Music\Verdi - Macbeth - Souliotis - Fischer-Dieskau - Gardelli\CD 2\10 Vittoria!.wav
Peak level 90.2 %
Extraction speed 3.9 X
Track quality 100.0 %
Test CRC 2F9F8552
Copy CRC 2F9F8552
Track not present in AccurateRip database
Copy OK
None of the tracks are present in the AccurateRip database
No errors occurred
End of status report
==== Log checksum 6384F577E961C1AFB4007086FEF339B18248328D132E8CC8E78F17232A857CF6 ====

Содержание индексной карты (.CUE)Содержание индексной карты (.CUE) CD 1

FILE "01 Preludium.flac" FLAC
REM FILE-DECODED-SIZE 03:19:12
TRACK 01 AUDIO
TITLE "01 Preludium"
INDEX 01 00:00:00
FILE "02 Che faceste dite su!.flac" FLAC
REM FILE-DECODED-SIZE 03:29:28
TRACK 02 AUDIO
TITLE "02 Che faceste dite su!"
INDEX 01 00:00:00
FILE "03 Giorno non vidi mai sн fiero e bello!.flac" FLAC
REM FILE-DECODED-SIZE 07:27:42
TRACK 03 AUDIO
TITLE "03 Giorno non vidi mai sн fiero e bello!"
INDEX 01 00:00:00
FILE "04 S'allontanarono! N'accozzeremo.flac" FLAC
REM FILE-DECODED-SIZE 02:06:30
TRACK 04 AUDIO
TITLE "04 S'allontanarono! N'accozzeremo"
INDEX 01 00:00:00
FILE "05 Nel dн della vittoria io le incontrai.flac" FLAC
REM FILE-DECODED-SIZE 09:17:12
TRACK 05 AUDIO
TITLE "05 Nel dн della vittoria io le incontrai"
INDEX 01 00:00:00
FILE "06 Oh donna mia!.flac" FLAC
REM FILE-DECODED-SIZE 03:26:58
TRACK 06 AUDIO
TITLE "06 Oh donna mia!"
INDEX 01 00:00:00
FILE "07 Sappia la sposa mia che, pronto appena.flac" FLAC
REM FILE-DECODED-SIZE 11:14:06
TRACK 07 AUDIO
TITLE "07 Sappia la sposa mia che, pronto appena"
INDEX 01 00:00:00
FILE "08 De destarlo per temp il re m'imposa.flac" FLAC
REM FILE-DECODED-SIZE 07:42:00
TRACK 08 AUDIO
TITLE "08 De destarlo per temp il re m'imposa"
INDEX 01 00:00:00
FILE "09 Perchй mi sfuggi.flac" FLAC
REM FILE-DECODED-SIZE 06:39:05
TRACK 09 AUDIO
TITLE "09 Perchй mi sfuggi"
INDEX 01 00:00:00
FILE "10 Chi v'imposa unirvi a noi.flac" FLAC
REM FILE-DECODED-SIZE 02:59:17
TRACK 10 AUDIO
TITLE "10 Chi v'imposa unirvi a noi"
INDEX 01 00:00:00
FILE "11 Studia il passo, o mio figlio.flac" FLAC
REM FILE-DECODED-SIZE 04:25:58
TRACK 11 AUDIO
TITLE "11 Studia il passo, o mio figlio"
INDEX 01 00:00:00
FILE "12 Salve, o Re!.flac" FLAC
REM FILE-DECODED-SIZE 15:17:13
TRACK 12 AUDIO
TITLE "12 Salve, o Re!"
INDEX 01 00:00:00

Содержание индексной карты (.CUE) CD 2

FILE "01 Tre volte miagola la gatta in fregola.flac" FLAC
REM FILE-DECODED-SIZE 13:52:00
TRACK 01 AUDIO
TITLE "01 Tre volte miagola la gatta in fregola"
INDEX 01 00:00:00
FILE "02 Finchй appelli, silenti m'attendete.flac" FLAC
REM FILE-DECODED-SIZE 11:56:38
TRACK 02 AUDIO
TITLE "02 Finchй appelli, silenti m'attendete"
INDEX 01 00:00:00
FILE "03 Ondine e Silfidi dall'ali candide.flac" FLAC
REM FILE-DECODED-SIZE 04:19:32
TRACK 03 AUDIO
TITLE "03 Ondine e Silfidi dall'ali candide"
INDEX 01 00:00:00
FILE "04 Ove son io.flac" FLAC
REM FILE-DECODED-SIZE 03:26:30
TRACK 04 AUDIO
TITLE "04 Ove son io"
INDEX 01 00:00:00
FILE "05 Patria oppressa!.flac" FLAC
REM FILE-DECODED-SIZE 06:17:62
TRACK 05 AUDIO
TITLE "05 Patria oppressa!"
INDEX 01 00:00:00
FILE "06 O figli, o figli miei!.flac" FLAC
REM FILE-DECODED-SIZE 06:20:00
TRACK 06 AUDIO
TITLE "06 O figli, o figli miei!"
INDEX 01 00:00:00
FILE "07 Vegliammo invan due notti.flac" FLAC
REM FILE-DECODED-SIZE 11:06:00
TRACK 07 AUDIO
TITLE "07 Vegliammo invan due notti"
INDEX 01 00:00:00
FILE "08 Perfidi! All'angelo contra me v'unite.flac" FLAC
REM FILE-DECODED-SIZE 05:57:62
TRACK 08 AUDIO
TITLE "08 Perfidi! All'angelo contra me v'unite"
INDEX 01 00:00:00
FILE "09 Ella й morta.flac" FLAC
REM FILE-DECODED-SIZE 03:52:43
TRACK 09 AUDIO
TITLE "09 Ella й morta"
INDEX 01 00:00:00
FILE "10 Vittoria!.flac" FLAC
REM FILE-DECODED-SIZE 03:43:20
TRACK 10 AUDIO
TITLE "10 Vittoria!"
INDEX 01 00:00:00

Треклист

Disc 1:
1. Preludio
Act 1:
2. Scene 1. Che faceste? dite su!
3. Scene 1. S'allontanarono! N'accozzeremo
4. Scene 2. Oh donna mia!
5. Scene 2. Sappia la sposa mia che, pronto appena
6. Scene 2. Di destarlo per tempo il re m'impose
Act 2:
7. Scene 1. Perché mi sfuggi
8. Scene 2. Chi v'impose unirvi a noi?
9. Scene 2. Studia il passo, o mio figlio
10. Act 2. Scene 3. Salve, o Re!
Disc 2:
Act 3:
1. Tre volte miagola la gatta in fregola
2. Ondine e Silfidi dall'ali candide
3. Ove son io?
Act 4:
4. Scene 1. Patria oppressa!
5. Scene 1. O figli, o figli miei!
6. Scene 2. Vegliammo invan due notti
7. Scene 3. Perfidi! All'anglo contra me v'unite!
8. Scene 4. Vittoria!



Показать сообщения:    

Текущее время: 04-Дек 19:22

Часовой пояс: UTC + 3


Вы не можете начинать темы
Вы не можете отвечать на сообщения
Вы не можете редактировать свои сообщения
Вы не можете удалять свои сообщения
Вы не можете голосовать в опросах
Вы не можете прикреплять файлы к сообщениям
Вы не можете скачивать файлы