(Opera) Vincenzo Bellini - I Capuleti e I Montecchi / Винченцо Беллини - Капулети и Монтекки (Lorin Maazel; Antonietta Pastori, Fiorenza Cossotto, Ivo Vinco, Vittorio Tatozzi, Renato Gavarini), 1958-Studio Rai Roma / 2008, FLAC (tracks+.cue),lossless


 

[Цитировать]

Vincenzo Bellini - I Capuleti e I Montecchi / Винченцо Беллини - Капулети и Монтекки (Lorin Maazel; Antonietta Pastori, Fiorenza Cossotto, Ivo Vinco, Vittorio Tatozzi, Renato Gavarini)
Жанр: Opera
Страна-производитель диска: Италия
Год издания диска: 2008
Издатель (лейбл): Myto Records
Дата записи: 1958
Аудиокодек: FLAC
Тип рипа: tracks+.cue
Битрейт аудио: lossless
Продолжительность: 129:19
Источник: релизер (Guillermo)
Исполнители:
Giulietta - Antonietta Pastori,
Romeo - Fiorenza Cossotto,
Lorenzo - Ivo Vinco,
Capellio - Vittorio Tatozzi,
Tebaldo - Renato Gavarini.
Conductor - Lorin Maazel,
Orchestra and Chorus of RAI Roma.
Recorded at Studio RAI Roma, 24 September, 1958.

Лог создания рипаЛог создания рипа CD 1

Exact Audio Copy V1.0 beta 3 from 29. August 2011
EAC extraction logfile from 17. August 2015, 22:26
Artista desconocido / Título desconocido
Used drive : HL-DT-STDVDRAM GH24NSC0 Adapter: 3 ID: 0
Read mode : Secure
Utilize accurate stream : Yes
Defeat audio cache : Yes
Make use of C2 pointers : No
Read offset correction : 6
Overread into Lead-In and Lead-Out : No
Fill up missing offset samples with silence : Yes
Delete leading and trailing silent blocks : No
Null samples used in CRC calculations : Yes
Used interface : Native Win32 interface for Win NT & 2000
Gap handling : Appended to previous track
Used output format : User Defined Encoder
Selected bitrate : 768 kBit/s
Quality : High
Add ID3 tag : No
Command line compressor : C:\Program Files (x86)\Exact Audio Copy\FLAC\FLAC.EXE
Additional command line options : -8 -V -T "ARTIST=%artist%" -T "TITLE=%title%" -T "ALBUM=%albumtitle%" -T "DATE=%year%" -T "TRACKNUMBER=%tracknr%" -T "GENRE=%genre%" -T "PERFORMER=%albuminterpret%" -T "COMPOSER=%composer%" %haslyrics%--tag-from-file=LYRICS="%lyricsfile%"%haslyrics% -T "ALBUMARTIST=%albumartist%" -T "DISCNUMBER=%cdnumber%" -T "TOTALDISCS=%totalcds%" -T "TOTALTRACKS=%numtracks%" -T "COMMENT=%comment%" %source% -o %dest%
TOC of the extracted CD
Track | Start | Length | Start sector | End sector
---------------------------------------------------------
1 | 0:00.00 | 4:24.14 | 0 | 19813
2 | 4:24.14 | 3:21.32 | 19814 | 34920
3 | 7:45.46 | 2:39.11 | 34921 | 46856
4 | 10:24.57 | 1:55.50 | 46857 | 55531
5 | 12:20.32 | 1:17.06 | 55532 | 61312
6 | 13:37.38 | 2:54.40 | 61313 | 74402
7 | 16:32.03 | 1:32.26 | 74403 | 81328
8 | 18:04.29 | 2:36.26 | 81329 | 93054
9 | 20:40.55 | 2:02.48 | 93055 | 102252
10 | 22:43.28 | 0:43.54 | 102253 | 105531
11 | 23:27.07 | 2:23.63 | 105532 | 116319
12 | 25:50.70 | 6:51.62 | 116320 | 147206
13 | 32:42.57 | 3:27.04 | 147207 | 162735
14 | 36:09.61 | 3:17.71 | 162736 | 177581
15 | 39:27.57 | 4:28.57 | 177582 | 197738
16 | 43:56.39 | 5:05.74 | 197739 | 220687
17 | 49:02.38 | 0:58.63 | 220688 | 225100
18 | 50:01.26 | 2:30.45 | 225101 | 236395
19 | 52:31.71 | 2:44.50 | 236396 | 248745
20 | 55:16.46 | 2:59.48 | 248746 | 262218
21 | 58:16.19 | 2:58.25 | 262219 | 275593
22 | 61:14.44 | 1:40.38 | 275594 | 283131
23 | 62:55.07 | 2:44.31 | 283132 | 295462
24 | 65:39.38 | 3:44.23 | 295463 | 312285
25 | 69:23.61 | 1:49.22 | 312286 | 320482
26 | 71:13.08 | 2:39.40 | 320483 | 332447
Track 1
Filename f:\Users\Guillermo\Desktop\EAC convertidos\01 Pista01.wav
Pre-gap length 0:00:02.00
Peak level 99.9 %
Extraction speed 1.4 X
Track quality 99.9 %
Test CRC 3153CAEE
Copy CRC 3153CAEE
Copy OK
Track 2
Filename f:\Users\Guillermo\Desktop\EAC convertidos\02 Pista02.wav
Peak level 87.3 %
Extraction speed 1.6 X
Track quality 100.0 %
Test CRC 87D447A3
Copy CRC 87D447A3
Copy OK
Track 3
Filename f:\Users\Guillermo\Desktop\EAC convertidos\03 Pista03.wav
Peak level 87.2 %
Extraction speed 1.7 X
Track quality 100.0 %
Test CRC 3F5DB300
Copy CRC 3F5DB300
Copy OK
Track 4
Filename f:\Users\Guillermo\Desktop\EAC convertidos\04 Pista04.wav
Peak level 72.5 %
Extraction speed 1.2 X
Track quality 99.8 %
Test CRC 0EE9142F
Copy CRC 0EE9142F
Copy OK
Track 5
Filename f:\Users\Guillermo\Desktop\EAC convertidos\05 Pista05.wav
Peak level 77.7 %
Extraction speed 1.0 X
Track quality 99.7 %
Test CRC 3A8DF714
Copy CRC 3A8DF714
Copy OK
Track 6
Filename f:\Users\Guillermo\Desktop\EAC convertidos\06 Pista06.wav
Peak level 75.5 %
Extraction speed 1.9 X
Track quality 100.0 %
Test CRC 9BE66418
Copy CRC 9BE66418
Copy OK
Track 7
Filename f:\Users\Guillermo\Desktop\EAC convertidos\07 Pista07.wav
Peak level 66.6 %
Extraction speed 1.6 X
Track quality 100.0 %
Test CRC B40519DF
Copy CRC B40519DF
Copy OK
Track 8
Filename f:\Users\Guillermo\Desktop\EAC convertidos\08 Pista08.wav
Peak level 75.9 %
Extraction speed 2.0 X
Track quality 100.0 %
Test CRC AEC12FC2
Copy CRC AEC12FC2
Copy OK
Track 9
Filename f:\Users\Guillermo\Desktop\EAC convertidos\09 Pista09.wav
Peak level 68.8 %
Extraction speed 1.9 X
Track quality 100.0 %
Test CRC 721A1C8E
Copy CRC 721A1C8E
Copy OK
Track 10
Filename f:\Users\Guillermo\Desktop\EAC convertidos\10 Pista10.wav
Peak level 61.1 %
Extraction speed 1.2 X
Track quality 100.0 %
Test CRC 19A7988B
Copy CRC 19A7988B
Copy OK
Track 11
Filename f:\Users\Guillermo\Desktop\EAC convertidos\11 Pista11.wav
Peak level 64.9 %
Extraction speed 2.0 X
Track quality 100.0 %
Test CRC 26AA05AC
Copy CRC 26AA05AC
Copy OK
Track 12
Filename f:\Users\Guillermo\Desktop\EAC convertidos\12 Pista12.wav
Peak level 58.9 %
Extraction speed 2.6 X
Track quality 100.0 %
Test CRC A1C6697F
Copy CRC A1C6697F
Copy OK
Track 13
Filename f:\Users\Guillermo\Desktop\EAC convertidos\13 Pista13.wav
Peak level 57.3 %
Extraction speed 2.5 X
Track quality 100.0 %
Test CRC D6552B72
Copy CRC D6552B72
Copy OK
Track 14
Filename f:\Users\Guillermo\Desktop\EAC convertidos\14 Pista14.wav
Peak level 69.8 %
Extraction speed 2.5 X
Track quality 100.0 %
Test CRC 034F48D4
Copy CRC 034F48D4
Copy OK
Track 15
Filename f:\Users\Guillermo\Desktop\EAC convertidos\15 Pista15.wav
Peak level 60.4 %
Extraction speed 2.8 X
Track quality 100.0 %
Test CRC A767057C
Copy CRC A767057C
Copy OK
Track 16
Filename f:\Users\Guillermo\Desktop\EAC convertidos\16 Pista16.wav
Peak level 56.0 %
Extraction speed 3.0 X
Track quality 100.0 %
Test CRC 085F5A9C
Copy CRC 085F5A9C
Copy OK
Track 17
Filename f:\Users\Guillermo\Desktop\EAC convertidos\17 Pista17.wav
Peak level 53.5 %
Extraction speed 1.8 X
Track quality 100.0 %
Test CRC 2E75CB7A
Copy CRC 2E75CB7A
Copy OK
Track 18
Filename f:\Users\Guillermo\Desktop\EAC convertidos\18 Pista18.wav
Peak level 59.6 %
Extraction speed 2.6 X
Track quality 100.0 %
Test CRC 0B62C3CE
Copy CRC 0B62C3CE
Copy OK
Track 19
Filename f:\Users\Guillermo\Desktop\EAC convertidos\19 Pista19.wav
Peak level 61.3 %
Extraction speed 2.8 X
Track quality 100.0 %
Test CRC DF337C17
Copy CRC DF337C17
Copy OK
Track 20
Filename f:\Users\Guillermo\Desktop\EAC convertidos\20 Pista20.wav
Peak level 59.3 %
Extraction speed 2.9 X
Track quality 100.0 %
Test CRC 78D233CE
Copy CRC 78D233CE
Copy OK
Track 21
Filename f:\Users\Guillermo\Desktop\EAC convertidos\21 Pista21.wav
Peak level 49.9 %
Extraction speed 2.9 X
Track quality 100.0 %
Test CRC 1A8D0583
Copy CRC 1A8D0583
Copy OK
Track 22
Filename f:\Users\Guillermo\Desktop\EAC convertidos\22 Pista22.wav
Peak level 60.4 %
Extraction speed 2.5 X
Track quality 100.0 %
Test CRC 88C7BB72
Copy CRC 88C7BB72
Copy OK
Track 23
Filename f:\Users\Guillermo\Desktop\EAC convertidos\23 Pista23.wav
Peak level 48.1 %
Extraction speed 2.4 X
Track quality 99.8 %
Test CRC BE265D56
Copy CRC BE265D56
Copy OK
Track 24
Filename f:\Users\Guillermo\Desktop\EAC convertidos\24 Pista24.wav
Peak level 49.3 %
Extraction speed 2.7 X
Track quality 99.9 %
Test CRC E22D2892
Copy CRC E22D2892
Copy OK
Track 25
Filename f:\Users\Guillermo\Desktop\EAC convertidos\25 Pista25.wav
Peak level 71.3 %
Extraction speed 2.0 X
Track quality 99.8 %
Test CRC 608E54BB
Copy CRC 608E54BB
Copy OK
Track 26
Filename f:\Users\Guillermo\Desktop\EAC convertidos\26 Pista26.wav
Peak level 77.5 %
Extraction speed 3.1 X
Track quality 100.0 %
Test CRC B2ED5B47
Copy CRC B2ED5B47
Copy OK
No errors occurred
End of status report
==== Log checksum B3F5C5698F24084FB6981A18339F5E871A5FB5F1F6FE9B70546C6E9A7925899F ====

Лог создания рипа CD 2

Exact Audio Copy V1.0 beta 3 from 29. August 2011
EAC extraction logfile from 18. August 2015, 7:11
Artista desconocido / Título desconocido
Used drive : HL-DT-STDVDRAM GH24NSC0 Adapter: 3 ID: 0
Read mode : Secure
Utilize accurate stream : Yes
Defeat audio cache : Yes
Make use of C2 pointers : No
Read offset correction : 6
Overread into Lead-In and Lead-Out : No
Fill up missing offset samples with silence : Yes
Delete leading and trailing silent blocks : No
Null samples used in CRC calculations : Yes
Used interface : Native Win32 interface for Win NT & 2000
Gap handling : Appended to previous track
Used output format : User Defined Encoder
Selected bitrate : 768 kBit/s
Quality : High
Add ID3 tag : No
Command line compressor : C:\Program Files (x86)\Exact Audio Copy\FLAC\FLAC.EXE
Additional command line options : -8 -V -T "ARTIST=%artist%" -T "TITLE=%title%" -T "ALBUM=%albumtitle%" -T "DATE=%year%" -T "TRACKNUMBER=%tracknr%" -T "GENRE=%genre%" -T "PERFORMER=%albuminterpret%" -T "COMPOSER=%composer%" %haslyrics%--tag-from-file=LYRICS="%lyricsfile%"%haslyrics% -T "ALBUMARTIST=%albumartist%" -T "DISCNUMBER=%cdnumber%" -T "TOTALDISCS=%totalcds%" -T "TOTALTRACKS=%numtracks%" -T "COMMENT=%comment%" %source% -o %dest%
TOC of the extracted CD
Track | Start | Length | Start sector | End sector
---------------------------------------------------------
1 | 0:00.00 | 1:00.70 | 0 | 4569
2 | 1:00.70 | 2:55.46 | 4570 | 17740
3 | 3:56.41 | 3:09.66 | 17741 | 31981
4 | 7:06.32 | 1:47.54 | 31982 | 40060
5 | 8:54.11 | 2:19.24 | 40061 | 50509
6 | 11:13.35 | 0:55.31 | 50510 | 54665
7 | 12:08.66 | 2:51.45 | 54666 | 67535
8 | 15:00.36 | 2:21.59 | 67536 | 78169
9 | 17:22.20 | 3:21.60 | 78170 | 93304
10 | 20:44.05 | 2:02.32 | 93305 | 102486
11 | 22:46.37 | 2:47.26 | 102487 | 115037
12 | 25:33.63 | 1:54.54 | 115038 | 123641
13 | 27:28.42 | 1:10.65 | 123642 | 128956
14 | 28:39.32 | 5:34.25 | 128957 | 154031
15 | 34:13.57 | 1:22.18 | 154032 | 160199
16 | 35:36.00 | 3:38.19 | 160200 | 176568
17 | 39:14.19 | 2:01.63 | 176569 | 185706
18 | 41:16.07 | 4:47.05 | 185707 | 207236
19 | 46:03.12 | 2:02.09 | 207237 | 216395
20 | 48:05.21 | 2:51.50 | 216396 | 229270
21 | 50:56.71 | 5:08.46 | 229271 | 252416
22 | 56:05.42 | 2:28.12 | 252417 | 263528
23 | 58:33.54 | 4:35.11 | 263529 | 284164
24 | 63:08.65 | 3:56.34 | 284165 | 301898
25 | 67:05.24 | 4:16.18 | 301899 | 321116
26 | 71:21.42 | 1:22.73 | 321117 | 327339
Track 1
Filename f:\Users\Guillermo\Desktop\EAC convertidos\01 Pista01.wav
Pre-gap length 0:00:02.00
Peak level 53.1 %
Extraction speed 0.9 X
Track quality 100.0 %
Test CRC 41B86715
Copy CRC 41B86715
Copy OK
Track 2
Filename f:\Users\Guillermo\Desktop\EAC convertidos\02 Pista02.wav
Peak level 60.9 %
Extraction speed 1.4 X
Track quality 100.0 %
Test CRC 03C41A22
Copy CRC 03C41A22
Copy OK
Track 3
Filename f:\Users\Guillermo\Desktop\EAC convertidos\03 Pista03.wav
Peak level 55.5 %
Extraction speed 1.6 X
Track quality 100.0 %
Test CRC A0238DB2
Copy CRC A0238DB2
Copy OK
Track 4
Filename f:\Users\Guillermo\Desktop\EAC convertidos\04 Pista04.wav
Peak level 58.5 %
Extraction speed 1.1 X
Track quality 99.8 %
Test CRC 25759E65
Copy CRC 25759E65
Copy OK
Track 5
Filename f:\Users\Guillermo\Desktop\EAC convertidos\05 Pista05.wav
Peak level 52.9 %
Extraction speed 1.6 X
Track quality 100.0 %
Test CRC 20E291DD
Copy CRC 20E291DD
Copy OK
Track 6
Filename f:\Users\Guillermo\Desktop\EAC convertidos\06 Pista06.wav
Peak level 35.6 %
Extraction speed 1.1 X
Track quality 100.0 %
Test CRC E0F6E398
Copy CRC E0F6E398
Copy OK
Track 7
Filename f:\Users\Guillermo\Desktop\EAC convertidos\07 Pista07.wav
Peak level 47.1 %
Extraction speed 1.8 X
Track quality 100.0 %
Test CRC 02C7EFCD
Copy CRC 02C7EFCD
Copy OK
Track 8
Filename f:\Users\Guillermo\Desktop\EAC convertidos\08 Pista08.wav
Peak level 67.8 %
Extraction speed 1.4 X
Track quality 99.8 %
Test CRC A3C646B4
Copy CRC A3C646B4
Copy OK
Track 9
Filename f:\Users\Guillermo\Desktop\EAC convertidos\09 Pista09.wav
Peak level 67.8 %
Extraction speed 2.1 X
Track quality 100.0 %
Test CRC 88BDE9E5
Copy CRC 88BDE9E5
Copy OK
Track 10
Filename f:\Users\Guillermo\Desktop\EAC convertidos\10 Pista10.wav
Peak level 49.6 %
Extraction speed 1.8 X
Track quality 100.0 %
Test CRC ED73C03F
Copy CRC ED73C03F
Copy OK
Track 11
Filename f:\Users\Guillermo\Desktop\EAC convertidos\11 Pista11.wav
Peak level 62.8 %
Extraction speed 2.1 X
Track quality 100.0 %
Test CRC A1F4BCAE
Copy CRC A1F4BCAE
Copy OK
Track 12
Filename f:\Users\Guillermo\Desktop\EAC convertidos\12 Pista12.wav
Peak level 22.4 %
Extraction speed 1.5 X
Track quality 99.8 %
Test CRC 453C77D3
Copy CRC 453C77D3
Copy OK
Track 13
Filename f:\Users\Guillermo\Desktop\EAC convertidos\13 Pista13.wav
Peak level 36.2 %
Extraction speed 1.6 X
Track quality 100.0 %
Test CRC 1CBBC499
Copy CRC 1CBBC499
Copy OK
Track 14
Filename f:\Users\Guillermo\Desktop\EAC convertidos\14 Pista14.wav
Peak level 47.4 %
Extraction speed 2.6 X
Track quality 100.0 %
Test CRC 55763216
Copy CRC 55763216
Copy OK
Track 15
Filename f:\Users\Guillermo\Desktop\EAC convertidos\15 Pista15.wav
Peak level 30.5 %
Extraction speed 1.3 X
Track quality 99.7 %
Test CRC B6C671D9
Copy CRC B6C671D9
Copy OK
Track 16
Filename f:\Users\Guillermo\Desktop\EAC convertidos\16 Pista16.wav
Peak level 36.0 %
Extraction speed 2.1 X
Track quality 99.9 %
Test CRC FFF1B1FD
Copy CRC FFF1B1FD
Copy OK
Track 17
Filename f:\Users\Guillermo\Desktop\EAC convertidos\17 Pista17.wav
Peak level 60.4 %
Extraction speed 2.2 X
Track quality 100.0 %
Test CRC 6DADD0A4
Copy CRC 6DADD0A4
Copy OK
Track 18
Filename f:\Users\Guillermo\Desktop\EAC convertidos\18 Pista18.wav
Peak level 66.9 %
Extraction speed 2.8 X
Track quality 100.0 %
Test CRC A1529822
Copy CRC A1529822
Copy OK
Track 19
Filename f:\Users\Guillermo\Desktop\EAC convertidos\19 Pista19.wav
Pre-gap length 0:00:08.00
Peak level 63.2 %
Extraction speed 2.3 X
Track quality 100.0 %
Test CRC E1D36754
Copy CRC E1D36754
Copy OK
Track 20
Filename f:\Users\Guillermo\Desktop\EAC convertidos\20 Pista20.wav
Peak level 87.1 %
Extraction speed 2.7 X
Track quality 100.0 %
Test CRC CD9F9250
Copy CRC CD9F9250
Copy OK
Track 21
Filename f:\Users\Guillermo\Desktop\EAC convertidos\21 Pista21.wav
Peak level 100.0 %
Extraction speed 3.1 X
Track quality 100.0 %
Test CRC 7CCE3B59
Copy CRC 7CCE3B59
Copy OK
Track 22
Filename f:\Users\Guillermo\Desktop\EAC convertidos\22 Pista22.wav
Peak level 57.4 %
Extraction speed 2.1 X
Track quality 99.8 %
Test CRC D961469D
Copy CRC D961469D
Copy OK
Track 23
Filename f:\Users\Guillermo\Desktop\EAC convertidos\23 Pista23.wav
Peak level 74.8 %
Extraction speed 3.2 X
Track quality 100.0 %
Test CRC 6A969E04
Copy CRC 6A969E04
Copy OK
Track 24
Filename f:\Users\Guillermo\Desktop\EAC convertidos\24 Pista24.wav
Peak level 83.2 %
Extraction speed 2.7 X
Track quality 99.9 %
Test CRC FDB6809E
Copy CRC FDB6809E
Copy OK
Track 25
Filename f:\Users\Guillermo\Desktop\EAC convertidos\25 Pista25.wav
Peak level 74.3 %
Extraction speed 3.3 X
Track quality 100.0 %
Test CRC 878FD899
Copy CRC 878FD899
Copy OK
Track 26
Filename f:\Users\Guillermo\Desktop\EAC convertidos\26 Pista26.wav
Peak level 92.4 %
Extraction speed 2.4 X
Track quality 100.0 %
Test CRC 87BF545F
Copy CRC 87BF545F
Copy OK
No errors occurred
End of status report
==== Log checksum 15E9BD7256BFFDDECC608AC436C161DE7397BA153ABF167AE45246B8651C0DFC ====

Содержание индексной карты (.CUE)Содержание индексной карты (.CUE) CD 1

REM DISCID 9A11501A
REM COMMENT "ExactAudioCopy v1.0b3"
FILE "01 Pista01.wav" WAVE
TRACK 01 AUDIO
INDEX 01 00:00:00
FILE "02 Pista02.wav" WAVE
TRACK 02 AUDIO
INDEX 01 00:00:00
FILE "03 Pista03.wav" WAVE
TRACK 03 AUDIO
INDEX 01 00:00:00
FILE "04 Pista04.wav" WAVE
TRACK 04 AUDIO
INDEX 01 00:00:00
FILE "05 Pista05.wav" WAVE
TRACK 05 AUDIO
INDEX 01 00:00:00
FILE "06 Pista06.wav" WAVE
TRACK 06 AUDIO
INDEX 01 00:00:00
FILE "07 Pista07.wav" WAVE
TRACK 07 AUDIO
INDEX 01 00:00:00
FILE "08 Pista08.wav" WAVE
TRACK 08 AUDIO
INDEX 01 00:00:00
FILE "09 Pista09.wav" WAVE
TRACK 09 AUDIO
INDEX 01 00:00:00
FILE "10 Pista10.wav" WAVE
TRACK 10 AUDIO
INDEX 01 00:00:00
FILE "11 Pista11.wav" WAVE
TRACK 11 AUDIO
INDEX 01 00:00:00
FILE "12 Pista12.wav" WAVE
TRACK 12 AUDIO
INDEX 01 00:00:00
FILE "13 Pista13.wav" WAVE
TRACK 13 AUDIO
INDEX 01 00:00:00
FILE "14 Pista14.wav" WAVE
TRACK 14 AUDIO
INDEX 01 00:00:00
FILE "15 Pista15.wav" WAVE
TRACK 15 AUDIO
INDEX 01 00:00:00
FILE "16 Pista16.wav" WAVE
TRACK 16 AUDIO
INDEX 01 00:00:00
FILE "17 Pista17.wav" WAVE
TRACK 17 AUDIO
INDEX 01 00:00:00
FILE "18 Pista18.wav" WAVE
TRACK 18 AUDIO
INDEX 01 00:00:00
FILE "19 Pista19.wav" WAVE
TRACK 19 AUDIO
INDEX 01 00:00:00
FILE "20 Pista20.wav" WAVE
TRACK 20 AUDIO
INDEX 01 00:00:00
FILE "21 Pista21.wav" WAVE
TRACK 21 AUDIO
INDEX 01 00:00:00
FILE "22 Pista22.wav" WAVE
TRACK 22 AUDIO
INDEX 01 00:00:00
FILE "23 Pista23.wav" WAVE
TRACK 23 AUDIO
INDEX 01 00:00:00
FILE "24 Pista24.wav" WAVE
TRACK 24 AUDIO
INDEX 01 00:00:00
FILE "25 Pista25.wav" WAVE
TRACK 25 AUDIO
INDEX 01 00:00:00
FILE "26 Pista26.wav" WAVE
TRACK 26 AUDIO
INDEX 01 00:00:00

Содержание индексной карты (.CUE) CD 2

REM DISCID 76110C1A
REM COMMENT "ExactAudioCopy v1.0b3"
FILE "01 Pista01.wav" WAVE
TRACK 01 AUDIO
INDEX 01 00:00:00
FILE "02 Pista02.wav" WAVE
TRACK 02 AUDIO
INDEX 01 00:00:00
FILE "03 Pista03.wav" WAVE
TRACK 03 AUDIO
INDEX 01 00:00:00
FILE "04 Pista04.wav" WAVE
TRACK 04 AUDIO
INDEX 01 00:00:00
FILE "05 Pista05.wav" WAVE
TRACK 05 AUDIO
INDEX 01 00:00:00
FILE "06 Pista06.wav" WAVE
TRACK 06 AUDIO
INDEX 01 00:00:00
FILE "07 Pista07.wav" WAVE
TRACK 07 AUDIO
INDEX 01 00:00:00
FILE "08 Pista08.wav" WAVE
TRACK 08 AUDIO
INDEX 01 00:00:00
FILE "09 Pista09.wav" WAVE
TRACK 09 AUDIO
INDEX 01 00:00:00
FILE "10 Pista10.wav" WAVE
TRACK 10 AUDIO
INDEX 01 00:00:00
FILE "11 Pista11.wav" WAVE
TRACK 11 AUDIO
INDEX 01 00:00:00
FILE "12 Pista12.wav" WAVE
TRACK 12 AUDIO
INDEX 01 00:00:00
FILE "13 Pista13.wav" WAVE
TRACK 13 AUDIO
INDEX 01 00:00:00
FILE "14 Pista14.wav" WAVE
TRACK 14 AUDIO
INDEX 01 00:00:00
FILE "15 Pista15.wav" WAVE
TRACK 15 AUDIO
INDEX 01 00:00:00
FILE "16 Pista16.wav" WAVE
TRACK 16 AUDIO
INDEX 01 00:00:00
FILE "17 Pista17.wav" WAVE
TRACK 17 AUDIO
INDEX 01 00:00:00
FILE "18 Pista18.wav" WAVE
TRACK 18 AUDIO
INDEX 01 00:00:00
TRACK 19 AUDIO
INDEX 00 04:39:05
FILE "19 Pista19.wav" WAVE
INDEX 01 00:00:00
FILE "20 Pista20.wav" WAVE
TRACK 20 AUDIO
INDEX 01 00:00:00
FILE "21 Pista21.wav" WAVE
TRACK 21 AUDIO
INDEX 01 00:00:00
FILE "22 Pista22.wav" WAVE
TRACK 22 AUDIO
INDEX 01 00:00:00
FILE "23 Pista23.wav" WAVE
TRACK 23 AUDIO
INDEX 01 00:00:00
FILE "24 Pista24.wav" WAVE
TRACK 24 AUDIO
INDEX 01 00:00:00
FILE "25 Pista25.wav" WAVE
TRACK 25 AUDIO
INDEX 01 00:00:00
FILE "26 Pista26.wav" WAVE
TRACK 26 AUDIO
INDEX 01 00:00:00

Треклист

Disc 1:
Act I:
1. Sinfonia
2. Scene 1: Aggiona appena … (Chorus)
3. Scene 1: O di Capello, generosi amici (Tebaldo, Capellio, Lorenzo, Chorus)
4. Scene 1: E serbato a questo acciaro (Tebaldo)
5. Scene 1: Si: m'abbraccia (Capellio, Lorenzo, Tebaldo, Chorus)
6. Scene 1: L'amo, ah! l’amo, (Tebaldo, Capellio, Chorus, Lorenzo)
7. Scene 1: Vanne Lorenzo: e tu, che il puoi (Capellio, Tebaldo)
8. Scene 1: Lieto del dolce incarco (Romeo, Tebaldo, Capellio, Chorus)
9. Scene 1: Se Romeo t'uccise un figlio (Romeo)
10. Scene 1: Riedi al campo (Capellio, Romeo, Tebaldo, Chorus)
11. Scene 1: La tremenda ultrice spada (Romeo, Chorus)
12. Scene 2: Eccomi in lieta vesta (Giulietta)
13. Scene 2: Oh! Quante volte, oh quante (Giulietta)
14. Scene 2: Propizia e l'ora (Lorenzo, Giulietta, Romeo)
15. Scene 2: Si, fuggire (Romeo, Giulietta)
16. Scene 2: Ah, crudel, d'onor ragioni (Romeo, Giulietta)
17. I Scene 2: Odi tu? L'altar funesto (Romeo, Giulietta)
18. Scene 2: Vieni, ah!, vieni, e in me riposa (Romeo, Giulietta)
19. Scene 3: Lieta notte, avventurosa (Chorus)
20. Scene 3: Deh! Per pieta, t'arresta (Lorenzo, Romeo, Chorus)
21. Scene 3: Tace il fragor (Giulietta)
22. Scene 3: Giulietta! (Romeo, Giulietta, Chorus, Tebaldo)
23. Scene 3: Ferma. (Capellio, Tebaldo, Lorenzo, Romeo, Giulietta)
24. Scene 3: Oh notte, raddensa (Capellio, Tebaldo, Lorenzo, Giulietta, Romeo)
25. Scene 3: Accorriam … Romeo! (Chorus, Tebaldo, Capellio, Romeo, Giulietta, Lorenzo)
26. Scene 3: Se ogni speme e a noi rapita (All)
Disc 2:
Act II:
1. Scene 1: Introduction
2. Scene 1: Ne alcun ritorna! … (Giulietta, Lorenzo)
3. Scene 1: Morte io non temo il sai (Giulietta, Lorenzo)
4. Scene 1: Prendi, gl'isntanti volano (Lorenzo, Giulietta, Capellio, Chorus)
5. Scene 1: Ah! Non poss'io partire (Giulietta, Capellio, Lorenzo, Chorus)
6. Scene 1: Qual turbamento io provo! (Capellio)
7. Scene 2: Introduction
8. Scene 2: Deserto e il luogo (Romeo, Tebaldo)
9. Scene 2: Stolto! A un sol mio grido (Tebaldo, Romeo)
10. Scene 2: Arresta (Tebaldo, Romeo, Chorus)
11. Scene 2: Ella e morta, o sciagurato (Romeo, Tebaldo)
12. Scene 3: Introduction
13. Scene 3: Siam giunti (Coro)
14. Scene 3: Ecco la tomba … (Romeo, Chorus)
15. Scene 3: Tu sola, o mia Giulietta (Romeo)
16. Scene 3: Deh! Tu, bell'anima (Romeo)
17. Scene 3: Ah! … Qual sospiro! (Giulietta, Romeo)
18. Scene 3: Ah! Crudel! Che mai facesti … (Giulietta, Romeo)
BONUS:
Giacomo Meyerbeer - Les Huguenots (Sung in Italian) (excerpts from Act II):
1. Introduction
2. Lieto suol della (Margherita)
3. Che la lotta fatal delle empie sette (Margherita, Paggio)
4. Ahime! … quanto vezzosa e la regina! (Paggio, Margherita, Valentina, Chorus)
5. Al rezzo amico dei verdi faggi (Margherita, Chorus, Paggio)
6. Di nuovo? … Urbano! (Margherita, Paggio, Chorus, Valentina)
7. Raul, la vostra fe' (Margherita, Raul)
8. Scender nel mio petto (Margherita, Raul)
Margerita - Antonietta Pastori,
Valentina - Anna de Cavalieri,
Paggio - Jolanda Gardino,
Raul - Giacomo Lauri-Volpi.
Tullio Serafin, Conductor,
Orchestra of RAI Milano.
Recorded at Studio RAi, Milan, 23 October, 1955.



Показать сообщения:    

Текущее время: 05-Дек 13:34

Часовой пояс: UTC + 3


Вы не можете начинать темы
Вы не можете отвечать на сообщения
Вы не можете редактировать свои сообщения
Вы не можете удалять свои сообщения
Вы не можете голосовать в опросах
Вы не можете прикреплять файлы к сообщениям
Вы не можете скачивать файлы