(Classical) Kurt Weill, A Paris • Marie Galante • Chansons • Musique Du Film "L'Opéra Des Quat'sous" De G.W. Pabst" (Loes Luca - Ensemble Dreigroschen, Giorgio Bernasconi) - 2000, APE (image+.cue) lossless


 

[Цитировать]

Kurt Weill, A Paris • Marie Galante • Chansons • Musique Du Film "L'Opéra Des Quat'sous" De G.W. Pabst"
Жанр: Classical
Страна-производитель диска: France
Год издания диска: 2000
Издатель (лейбл): Assai
Номер по каталогу: 207192
Дата записи: 1995
Аудиокодек: APE
Тип рипа: image+.cue
Битрейт аудио: lossless
Продолжительность: 76'40
Источник: скачано с
Наличие сканов в содержимом раздачи: да
Треклист:
Marie Galante:
1 Introduction (Jacques Deval)
2 Marche De L'armée Panaméenne (Jacques Deval)
3 Les Filles De Bordeaux (Jacques Deval)
4 Scène Au Dancing (Jacques Deval)
5 Intermezzo (Jacques Deval)
6 Le Grand Lustucru (Jacques Deval)
7 Le Roi D'Aquitaine (Jacques Deval)
8 Presto (Jacques Deval)
9 J'Attends Un Navire (Jacques Deval)
10 Tango (Jacques Deval)
11 Le Train Du Ciel (Jacques Deval)Chansons:
12 Je Ne T'aime Pas (Maurice Magre)
13 Complainte De La Seine (Maurice Magre)
14 Youkali (Tango-Habanera) (Roger Fernay)
Historic Recordings
15 Chant De Barbara (Bertolt Brecht)
16 Le Fiancée Du Pirate (Bertolt Brecht)
17 Chant Des Canons (Bertolt Brecht)
18 Tangoballade (L'Opéra De Quat'sous)
19 Ballade De La Vie Agréable (L'Opéra De Quat'sous)Musique Du Film "L'Opéra Des Quat'sous" De G.W. Pabst":
20 Ballade Sur La Question «De Quoi Vit L'Homme»?
21 Moritat
22 Chant D'Amour
23 Chant De La Vanité De L'Effort Humain
24 Mélodrame
25 Moritat
Исполнители:
Vocals:
- Loes Luca, Mezzo-soprano (tracks: 1 to 14)
- Lys Gauty (tracks: 15)
- Odette Florelle (tracks: 16)
- Marianne Oswald (tracks: 17)
- Jacques Henley / Albert Préjean / Maro Lion (tracks: 18 to 19)
Ensembles:
Ensemble Dreigroschen, Giorgio Bernasconi (tracks: 1 to 11, 20 to 25)
Lewis Rith Band, Theo Mackeben (tracks: 18 to 19)
Orchestre Jean Lenoir (tracks: 16)
Orchestre Pierre Chagnon (tracks: 15, 17)
Orchestration, Paul Glass (tracks: 14)
Piano – Alessandro D'Onofrio (tracks: 12 to 13)

Лог создания рипа

Exact Audio Copy V1.0 beta 6 from 9. April 2015
EAC extraction logfile from 22. August 2015, 15:36
Weill / Kurt Weill a Paris
Used drive : TS8XDVDSTRANSCEND Adapter: 1 ID: 1
Read mode : Secure
Utilize accurate stream : Yes
Defeat audio cache : Yes
Make use of C2 pointers : No
Read offset correction : 6
Overread into Lead-In and Lead-Out : No
Fill up missing offset samples with silence : Yes
Delete leading and trailing silent blocks : No
Null samples used in CRC calculations : Yes
Used interface : Native Win32 interface for Win NT & 2000
Used output format : Monkey's Audio Lossless Encoder
Selected bitrate : High Lossless Compression
Quality : High
Add ID3 tag : Yes
Command line compressor : C:\Program Files (x86)\Exact Audio Copy\MAC\MAC.exe
TOC of the extracted CD
Track | Start | Length | Start sector | End sector
---------------------------------------------------------
1 | 0:00.00 | 3:38.62 | 0 | 16411
2 | 3:38.62 | 2:33.38 | 16412 | 27924
3 | 6:12.25 | 3:19.35 | 27925 | 42884
4 | 9:31.60 | 3:09.40 | 42885 | 57099
5 | 12:41.25 | 3:19.35 | 57100 | 72059
6 | 16:00.60 | 3:10.25 | 72060 | 86334
7 | 19:11.10 | 2:53.22 | 86335 | 99331
8 | 22:04.32 | 0:34.25 | 99332 | 101906
9 | 22:38.57 | 5:08.60 | 101907 | 125066
10 | 27:47.42 | 4:50.65 | 125067 | 146881
11 | 32:38.32 | 5:19.63 | 146882 | 170869
12 | 37:58.20 | 3:44.52 | 170870 | 187721
13 | 41:42.72 | 3:09.30 | 187722 | 201926
14 | 44:52.27 | 4:41.50 | 201927 | 223051
15 | 49:34.02 | 3:34.05 | 223052 | 239106
16 | 53:08.07 | 3:20.00 | 239107 | 254106
17 | 56:28.07 | 3:10.68 | 254107 | 268424
18 | 59:39.00 | 3:18.70 | 268425 | 283344
19 | 62:57.70 | 2:01.50 | 283345 | 292469
20 | 64:59.45 | 2:02.47 | 292470 | 301666
21 | 67:02.17 | 2:54.35 | 301667 | 314751
22 | 69:56.52 | 2:33.48 | 314752 | 326274
23 | 72:30.25 | 1:26.37 | 326275 | 332761
24 | 73:56.62 | 1:08.58 | 332762 | 337919
25 | 75:05.45 | 1:32.65 | 337920 | 344884
Range status and errors
Selected range
Filename D:\EAC\Weill - Kurt Weill a Paris.wav
Peak level 97.9 %
Extraction speed 5.2 X
Range quality 100.0 %
Test CRC 6BD7F4FD
Copy CRC 6BD7F4FD
Copy OK
No errors occurred
AccurateRip summary
Track 1 accurately ripped (confidence 1) [11882FAB] (AR v2)
Track 2 accurately ripped (confidence 1) [C42369F9] (AR v2)
Track 3 accurately ripped (confidence 1) [595ECE43] (AR v2)
Track 4 accurately ripped (confidence 1) [3676ED70] (AR v2)
Track 5 accurately ripped (confidence 1) [E31A6C21] (AR v2)
Track 6 accurately ripped (confidence 1) [A53E9745] (AR v2)
Track 7 accurately ripped (confidence 1) [BB39CD59] (AR v2)
Track 8 accurately ripped (confidence 1) [80313FCD] (AR v2)
Track 9 accurately ripped (confidence 1) [1BFAE63A] (AR v2)
Track 10 accurately ripped (confidence 1) [B8FD3E76] (AR v2)
Track 11 accurately ripped (confidence 1) [EC57B342] (AR v2)
Track 12 accurately ripped (confidence 1) [22CFA7AF] (AR v2)
Track 13 accurately ripped (confidence 1) [A24407D1] (AR v2)
Track 14 accurately ripped (confidence 1) [DAE07F1F] (AR v2)
Track 15 accurately ripped (confidence 1) [EB0AE9EC] (AR v2)
Track 16 accurately ripped (confidence 1) [F92DFE31] (AR v2)
Track 17 accurately ripped (confidence 1) [9334C6AC] (AR v2)
Track 18 accurately ripped (confidence 1) [202005FD] (AR v2)
Track 19 accurately ripped (confidence 1) [BB2C36AA] (AR v2)
Track 20 accurately ripped (confidence 1) [740454C9] (AR v2)
Track 21 accurately ripped (confidence 1) [A92BF345] (AR v2)
Track 22 accurately ripped (confidence 1) [F6F17927] (AR v2)
Track 23 accurately ripped (confidence 1) [FB27DE31] (AR v2)
Track 24 accurately ripped (confidence 1) [D41C6693] (AR v2)
Track 25 accurately ripped (confidence 1) [AD6209DD] (AR v2)
All tracks accurately ripped
End of status report
---- CUETools DB Plugin V2.1.6
[CTDB TOCID: D.a6FWZkuZ9MAERaBm4bNJ3CaWI-] found
Submit result: unrecognized or virtual drive
Track | CTDB Status
1 | (2/2) Accurately ripped
2 | (2/2) Accurately ripped
3 | (2/2) Accurately ripped
4 | (2/2) Accurately ripped
5 | (2/2) Accurately ripped
6 | (2/2) Accurately ripped
7 | (2/2) Accurately ripped
8 | (2/2) Accurately ripped
9 | (2/2) Accurately ripped
10 | (2/2) Accurately ripped
11 | (2/2) Accurately ripped
12 | (2/2) Accurately ripped
13 | (2/2) Accurately ripped
14 | (2/2) Accurately ripped
15 | (2/2) Accurately ripped
16 | (2/2) Accurately ripped
17 | (2/2) Accurately ripped
18 | (2/2) Accurately ripped
19 | (2/2) Accurately ripped
20 | (2/2) Accurately ripped
21 | (2/2) Accurately ripped
22 | (2/2) Accurately ripped
23 | (2/2) Accurately ripped
24 | (2/2) Accurately ripped
25 | (2/2) Accurately ripped
==== Log checksum 53D1A88D64D99EAE43CCCB46F168D4E5C6D57E9EBE60500233DC7B2B49E45DB6 ====

Содержание индексной карты (.CUE)

REM GENRE Vocal
REM DATE 1995
REM DISCID 7411F619
REM COMMENT "ExactAudioCopy v1.0b6"
PERFORMER "Weill"
TITLE "Kurt Weill a Paris"
FILE "Weill - Kurt Weill a Paris.ape" WAVE
TRACK 01 AUDIO
TITLE "Maria Galante - Introduction"
PERFORMER "Luca, Galante - Ensemble Dreigrosschen - Musique de film de L'Opera des Quat'..."
INDEX 01 00:00:00
TRACK 02 AUDIO
TITLE "Maria Galante - Marche de l' armée panaméenne"
PERFORMER "Luca, Galante - Ensemble Dreigrosschen - Musique de film de L'Opera des Quat'..."
INDEX 01 03:38:62
TRACK 03 AUDIO
TITLE "Maria Galante - Les Filles de Bordeaux"
PERFORMER "Luca, Galante - Ensemble Dreigrosschen - Musique de film de L'Opera des Quat'..."
INDEX 00 06:12:07
INDEX 01 06:12:25
TRACK 04 AUDIO
TITLE "Maria Galante - Scène au dancing"
PERFORMER "Luca, Galante - Ensemble Dreigrosschen - Musique de film de L'Opera des Quat'..."
INDEX 00 09:31:42
INDEX 01 09:31:60
TRACK 05 AUDIO
TITLE "Maria Galante - Intermezzo"
PERFORMER "Luca, Galante - Ensemble Dreigrosschen - Musique de film de L'Opera des Quat'..."
INDEX 00 12:41:07
INDEX 01 12:41:25
TRACK 06 AUDIO
TITLE "Maria Galante - Le grand lustucru"
PERFORMER "Luca, Galante - Ensemble Dreigrosschen - Musique de film de L'Opera des Quat'..."
INDEX 00 16:00:45
INDEX 01 16:00:60
TRACK 07 AUDIO
TITLE "Maria Galante - Le Roi d' Aquitaine"
PERFORMER "Luca, Galante - Ensemble Dreigrosschen - Musique de film de L'Opera des Quat'..."
INDEX 00 19:10:68
INDEX 01 19:11:10
TRACK 08 AUDIO
TITLE "Maria Galante - Presto"
PERFORMER "Luca, Galante - Ensemble Dreigrosschen - Musique de film de L'Opera des Quat'..."
INDEX 01 22:04:32
TRACK 09 AUDIO
TITLE "Maria Galante - J'attends un navire"
PERFORMER "Luca, Galante - Ensemble Dreigrosschen - Musique de film de L'Opera des Quat'..."
INDEX 00 22:38:42
INDEX 01 22:38:57
TRACK 10 AUDIO
TITLE "Maria Galante - Tango"
PERFORMER "Luca, Galante - Ensemble Dreigrosschen - Musique de film de L'Opera des Quat'..."
INDEX 00 27:47:24
INDEX 01 27:47:42
TRACK 11 AUDIO
TITLE "Maria Galante - Le Train du ciel"
PERFORMER "Luca, Galante - Ensemble Dreigrosschen - Musique de film de L'Opera des Quat'..."
INDEX 00 32:37:33
INDEX 01 32:38:32
TRACK 12 AUDIO
TITLE "Je ne t'aime pas"
PERFORMER "Luca, Galante - Ensemble Dreigrosschen - Musique de film de L'Opera des Quat'..."
INDEX 00 37:58:02
INDEX 01 37:58:20
TRACK 13 AUDIO
TITLE "Complainte de la Seine"
PERFORMER "Luca, Galante - Ensemble Dreigrosschen - Musique de film de L'Opera des Quat'..."
INDEX 00 41:42:54
INDEX 01 41:42:72
TRACK 14 AUDIO
TITLE "Youkali"
PERFORMER "Luca, Galante - Ensemble Dreigrosschen - Musique de film de L'Opera des Quat'..."
INDEX 00 44:52:10
INDEX 01 44:52:27
TRACK 15 AUDIO
TITLE "Chant de Barbara (B. Brecht)"
PERFORMER "Luca, Galante - Ensemble Dreigrosschen - Musique de film de L'Opera des Quat'..."
INDEX 00 49:33:69
INDEX 01 49:34:02
TRACK 16 AUDIO
TITLE "La Fiancée du pirate (B. Brecht)"
PERFORMER "Luca, Galante - Ensemble Dreigrosschen - Musique de film de L'Opera des Quat'..."
INDEX 00 53:08:04
INDEX 01 53:08:07
TRACK 17 AUDIO
TITLE "Chant des canons (B. Brecht)"
PERFORMER "Luca, Galante - Ensemble Dreigrosschen - Musique de film de L'Opera des Quat'..."
INDEX 00 56:27:65
INDEX 01 56:28:07
TRACK 18 AUDIO
TITLE "L'Opera des quat'sous - Tangoballade"
PERFORMER "Luca, Galante - Ensemble Dreigrosschen - Musique de film de L'Opera des Quat'..."
INDEX 00 59:38:57
INDEX 01 59:39:00
TRACK 19 AUDIO
TITLE "L'Opera des quat'sous - Ballade de la vie agréable"
PERFORMER "Luca, Galante - Ensemble Dreigrosschen - Musique de film de L'Opera des Quat'..."
INDEX 00 62:57:53
INDEX 01 62:57:70
TRACK 20 AUDIO
TITLE "L'Opera des quat'sous - Ballade sur la question 'de quoi vive l'homme?'"
PERFORMER "Luca, Galante - Ensemble Dreigrosschen - Musique de film de L'Opera des Quat'..."
INDEX 01 64:59:45
TRACK 21 AUDIO
TITLE "L'Opera des quat'sous - Moritat"
PERFORMER "Luca, Galante - Ensemble Dreigrosschen - Musique de film de L'Opera des Quat'..."
INDEX 01 67:02:17
TRACK 22 AUDIO
TITLE "L'Opera des quat'sous - Chant d'amour"
PERFORMER "Luca, Galante - Ensemble Dreigrosschen - Musique de film de L'Opera des Quat'..."
INDEX 00 69:56:33
INDEX 01 69:56:52
TRACK 23 AUDIO
TITLE "L'Opera des quat'sous - chant de la vanité de l'effort humain"
PERFORMER "Luca, Galante - Ensemble Dreigrosschen - Musique de film de L'Opera des Quat'..."
INDEX 01 72:30:25
TRACK 24 AUDIO
TITLE "L'Opera des quat'sous - Mélodramme"
PERFORMER "Luca, Galante - Ensemble Dreigrosschen - Musique de film de L'Opera des Quat'..."
INDEX 01 73:56:62
TRACK 25 AUDIO
TITLE "L'Opera des quat'sous - Moritat"
PERFORMER "WeillLuca, Galante - Ensemble Dreigrosschen - Musique de film de L'Opera des ..."
INDEX 01 75:05:45



Показать сообщения:    

Текущее время: 04-Дек 13:18

Часовой пояс: UTC + 3


Вы не можете начинать темы
Вы не можете отвечать на сообщения
Вы не можете редактировать свои сообщения
Вы не можете удалять свои сообщения
Вы не можете голосовать в опросах
Вы не можете прикреплять файлы к сообщениям
Вы не можете скачивать файлы