(Renaissance) Sigismondo d'India: Voi ch'ascoltate (Ensemble Poiesis, dir. Marion Fourquier)- 2003, WavPack (image+.cue) lossless


 

[Цитировать]

Sigismondo d'India
Voi ch'ascoltate
Ensemble Poïésis
Жанр: Renaissance
Страна-производитель диска: France
Год издания диска: 2003
Издатель (лейбл): Zig-Zag Territoires
Номер по каталогу: ZZT 040101
Дата записи: 6-10 May 2002 & 3 July 2003
Аудиокодек: WavPack
Тип рипа: image+.cue
Битрейт аудио: lossless
Продолжительность: 53:18
Источник: собственный рип
Наличие сканов в содержимом раздачи: да

Треклист

01. Pallidetta qual viola, poème de Francesco Ferranti (ca 1600) [2:25]
02. Voi ch'ascoltate, sonnet 1 du Canzoniere de Francesco Petrarca (1304-1374) [2:49]
03. I' vidi in terra angelici costumi, sonnet 156 du Canzoniere de Francesco Petrarca (1304-1374) [2:56]
04. Toccata seconda Giovanni TRABACI (1575-1647) [2:29]
05. Tutto 'l dì piango, sonnet 216 du Canzoniere de Francesco Petrarca (1304-1374) [2:52]
06. Bellissima Dori, Anonyme [1:24]
07. Ricercar, Anonyme [1:57]
08. Vorrei baciarti, o Filli, poème de Giambattista Marino (1569-1625) [1:59]
09. Misera non credea, extrait de La Jérusalem délivrée de Torquato Tasso (1544-1595) [1:55]
10. Ma che ? squallido e oscuro, extrait de La Jérusalem délivrée de Torquato Tasso (1544-1595) [1:50]
11. O Primavera, gioventù dell'anno, extrait du Pastor fido de Battista Guarini (1538-1612) [8:06]
12. Com'è soave cosa, extrait du Pastor fido de Battista Guarini (1538-1612) [1:43]
13. Ecco Filli, Anonyme [3:42]
14. «Amico, hai vinto: io ti perdon...» extrait de La Jérusalem délivrée de Torquato Tasso (1544-1595) [4:42]
15. Piange Madonna [2:43]
16. Giunto a la tomba, extrait de La Jérusalem délivrée de Torquato Tasso (1544-1595) [3:21]
17. Prélude [1:32]
18. Mentre che 'l cor dagli amorosi vermi, sonnet 304 du Canzoniere de Francesco Petrarca (1304-1374) [2:12]
19. Ecco la Luce [1:07]
20. Or che 'l ciel e la terra, sonnet 164 (1 quatrain) du Canzoniere de Francesco Petrarca (1304-1374) [1:32]

Исполнители

Ensemble Poïésis:
Marion Fourquier: Harpe triple & Direction
Cristiana Presutti: Soprnano
Lucien Kandel: Tenor
Martin Bauer: Viole de gambe
Lucas Guimaraes-Peres: Lirone
Avec la participation de:
Charles-Ed9ouard Fantin: Guitare (plage 1)
Caroline Delume: Guitare (plage 13)
Valerie Loomer: Guitare (plage 13)

log EAC

Exact Audio Copy V0.99 prebeta 5 from 4. May 2009
Отчёт EAC об извлечении, выполненном 12. июля 2013, 12:36
Ensemble Poiesis / Sigismondo d'India: Voi ch'ascoltate
Дисковод: PIONEER DVD-RW DVR-219L Adapter: 3 ID: 0
Режим чтения : Достоверность
Использование точного потока : Да
Отключение кэша аудио : Да
Использование указателей C2 : Нет
Коррекция смещения при чтении : 6
Способность читать области Lead-in и Lead-out : Нет
Заполнение пропущенных сэмплов тишиной : Да
Удаление блоков с тишиной в начале и конце : Нет
При вычислениях CRC использовались нулевые сэмплы : Да
Интерфейс : Встроенный Win32-интерфейс для Win NT/2000
Выходной формат : Внутренние WAV-операции
Формат сэмплов : 44.100 Гц; 16 бит; стерео
TOC извлечённого CD
Трек | Старт | Длительность | Начальный сектор | Конечный сектор
---------------------------------------------------------------------
1 | 0:00.00 | 2:24.57 | 0 | 10856
2 | 2:24.57 | 2:48.73 | 10857 | 23529
3 | 5:13.55 | 2:56.35 | 23530 | 36764
4 | 8:10.15 | 2:29.07 | 36765 | 47946
5 | 10:39.22 | 2:51.63 | 47947 | 60834
6 | 13:31.10 | 1:24.25 | 60835 | 67159
7 | 14:55.35 | 1:56.45 | 67160 | 75904
8 | 16:52.05 | 1:59.32 | 75905 | 84861
9 | 18:51.37 | 1:55.35 | 84862 | 93521
10 | 20:46.72 | 1:50.00 | 93522 | 101771
11 | 22:36.72 | 8:05.38 | 101772 | 138184
12 | 30:42.35 | 1:42.72 | 138185 | 145906
13 | 32:25.32 | 3:42.30 | 145907 | 162586
14 | 36:07.62 | 4:42.28 | 162587 | 183764
15 | 40:50.15 | 2:43.17 | 183765 | 196006
16 | 43:33.32 | 3:21.13 | 196007 | 211094
17 | 46:54.45 | 1:31.50 | 211095 | 217969
18 | 48:26.20 | 2:12.30 | 217970 | 227899
19 | 50:38.50 | 1:07.12 | 227900 | 232936
20 | 51:45.62 | 1:32.15 | 232937 | 239851
Характеристики диапазона извлечения и сообщения об ошибках
Выбранный диапазон
Имя файла C:\Documents and Settings\agni\Мои документы\EAC\Ensemble Poiesis - Sigismondo d'India - Voi ch'ascoltate.wav
Пиковый уровень 96.7 %
Качество диапазона 100.0 %
CRC теста C9923AA4
CRC копии C9923AA4
Копирование... OK
Ошибок не произошло
AccurateRip: сводка
Трек 1 точность не определена (достоверность 1) [99E9ED27], AccurateRip вернул [0798A50A]
Трек 2 точность не определена (достоверность 1) [F4C22AA2], AccurateRip вернул [29895A83]
Трек 3 точность не определена (достоверность 1) [0C489A87], AccurateRip вернул [DC75A99D]
Трек 4 точность не определена (достоверность 1) [7AD62EF3], AccurateRip вернул [D395959B]
Трек 5 точность не определена (достоверность 1) [49AE15C8], AccurateRip вернул [ECD4CC14]
Трек 6 точность не определена (достоверность 1) [300B2A6C], AccurateRip вернул [C875D48A]
Трек 7 точность не определена (достоверность 1) [3E639E4E], AccurateRip вернул [197D6E29]
Трек 8 точность не определена (достоверность 1) [9C76E98D], AccurateRip вернул [B95F67D7]
Трек 9 точность не определена (достоверность 1) [ACA18CE2], AccurateRip вернул [06F73F5D]
Трек 10 точность не определена (достоверность 1) [B2FA3626], AccurateRip вернул [6A2E3335]
Трек 11 точность не определена (достоверность 1) [CC90B95A], AccurateRip вернул [8CA9B132]
Трек 12 точность не определена (достоверность 1) [D0842404], AccurateRip вернул [B4BDACFE]
Трек 13 точность не определена (достоверность 1) [03A37AC3], AccurateRip вернул [5D58ABDD]
Трек 14 точность не определена (достоверность 1) [B5C7A2E5], AccurateRip вернул [01CA8C6C]
Трек 15 точность не определена (достоверность 1) [4F54ED2A], AccurateRip вернул [B2C79BD1]
Трек 16 точность не определена (достоверность 1) [DEBAAE28], AccurateRip вернул [F8EF9C41]
Трек 17 точность не определена (достоверность 1) [C9C75B5B], AccurateRip вернул [EADC76CB]
Трек 18 точность не определена (достоверность 1) [FB114598], AccurateRip вернул [3F0778EF]
Трек 19 точность не определена (достоверность 1) [CEC1674F], AccurateRip вернул [FD363290]
Трек 20 точность не определена (достоверность 1) [0395E4F5], AccurateRip вернул [3032A990]
Ни один трек не прошёл проверки на точность
В вашей базе может быть иной вариант штамповки диска
Конец отчёта



Показать сообщения:    

Текущее время: 09-Дек 08:48

Часовой пояс: UTC + 3


Вы не можете начинать темы
Вы не можете отвечать на сообщения
Вы не можете редактировать свои сообщения
Вы не можете удалять свои сообщения
Вы не можете голосовать в опросах
Вы не можете прикреплять файлы к сообщениям
Вы не можете скачивать файлы