[TR24][SM][OF] Frederic Chopin - Nocturnes 1 a 19 - Samson Francois - 1966 (Classical)


Статистика раздачи [Обновить пиров]
Размер:  1.55 GB   |    Зарегистрирован:  8 месяцев 21 день   |    Скачан:  0 раз

Полного источника не было: Никогда

 
   
 
 
 

[Цитировать]

·
·
·

Frédéric Chopin (1810-1849)Жанр: Keyboard
Носитель: Official Digital Download
Год переиздания диска: 2012
Издатель(лейбл): EMI Music France
Номер по каталогу: v/n
Продолжительность: 01:31:17
Наличие сканов в содержимом раздачи: cover & booklet
Контейнер: FLAC (*.flac)
Разрядность: 24/96
Количество каналов: 2.0
Формат: tracks
Источник: HDtracks
Pелизер: WEB (thanks to the original customer)
Samson François piano

ТреклистДиск 1

01 Nocturne No.1 en si bemol mineurOp.9 No.1
02 Nocturne No.2 en mi bemol majeur Op.9 No.2
03 Nocturne No.3 en si majeur Op.9 No.3
04 Nocturne No.4 en fa majeur Op.15 No.1
05 Nocturne No.5 en fa diese majeur Op.15 No.2
06 Nocturne No.6 en sol mineur Op.15 No.3
07 Nocturne No.7 en ut diese mineur Op.27 No.1
08 Nocturne No.8 en re bemol majeur Op.27 No.2
09 Nocturne No.9 en si majeur Op.32 No.1
10 Nocturne No.10 en la bemol majeur Op.32 No.2

Диск 2

11 Nocturne No.11 en sol mineurOp.37 No.1
12 Nocturne No.12 en sol majeurOp.37 No.2
13 Nocturne No.13 en ut mineur Op.48 No.1
14 Nocturne No.14 en fa diese mineur Op.48 No.2
15 Nocturne No.15 en fa mineur Op.55 No.1
16 Nocturne No.16 en mi bemol majeur Op.55 No.2
17 Nocturne No.17 en si majeur Op.62 No.1
18 Nocturne No.18 en mi majeur Op.62 No.2
19 Nocturne No.19 en mi mineur Op.72 No.1

Dynamic Range Meter

foobar2000 1.3.8 / Dynamic Range Meter 1.1.1
log date: 2015-08-20 21:35:33
--------------------------------------------------------------------------------
Analyzed: Samson François / Chopin: Nocturnes Nos.1-19
--------------------------------------------------------------------------------
DR Peak RMS Duration Track
--------------------------------------------------------------------------------
DR14 -2.87 dB -24.76 dB 5:17 01-Nocturne No.1 en si bemol mineur Op.9 No.1
DR14 -5.36 dB -25.67 dB 4:14 02-Nocturne No.2 en mi bemol majeur Op.9 No.2
DR12 -3.60 dB -21.02 dB 6:19 03-Nocturne No.3 en si majeur Op.9 No.3
DR13 -2.86 dB -22.00 dB 3:48 04-Nocturne No.4 en fa majeur Op.15 No.1
DR14 -3.48 dB -23.22 dB 3:33 05-Nocturne No.5 en fa diese majeur Op.15 No.2
DR17 -0.92 dB -24.33 dB 4:04 06-Nocturne No.6 en sol mineur Op.15 No.3
DR13 -1.48 dB -21.02 dB 4:59 07-Nocturne No.7 en ut diese mineur Op.27 No.1
DR12 -3.65 dB -20.67 dB 5:40 08-Nocturne No.8 en re bemol majeur Op.27 No.2
DR13 -6.59 dB -23.77 dB 4:06 09-Nocturne No.9 en si majeur Op.32 No.1
DR13 -1.10 dB -19.26 dB 5:03 10-Nocturne No.10 en la bemol majeur Op.32 No.2
DR13 -7.54 dB -25.45 dB 5:00 11-Nocturne No.11 en sol mineur Op.37 No.1
DR14 -4.78 dB -24.07 dB 5:20 12-Nocturne No.12 en sol majeur Op.37 No.2
DR14 -1.78 dB -20.89 dB 6:37 13-Nocturne No.13 en ut mineur Op.48 No.1
DR14 -2.43 dB -21.10 dB 6:23 14-Nocturne No.14 en fa diese mineur Op.48 No.2
DR14 -3.45 dB -23.38 dB 4:28 15-Nocturne No.15 en fa mineur Op.55 No.1
DR13 -3.21 dB -22.26 dB 3:59 16-Nocturne No.16 en mi bemol majeur Op.55 No.2
DR13 -7.29 dB -25.13 dB 5:52 17-Nocturne No.17 en si majeur Op.62 No.1
DR12 -4.25 dB -21.08 dB 5:21 18-Nocturne No.18 en mi majeur Op.62 No.2
DR14 -1.25 dB -19.58 dB 3:17 19-Nocturne No.19 en mi mineur Op.72 No.1
--------------------------------------------------------------------------------
Number of tracks: 19
Official DR value: DR13
Samplerate: 96000 Hz
Channels: 2
Bits per sample: 24
Bitrate: 1408 kbps
Codec: FLAC
================================================================================
[teatrix.ru].t22070.torrent 
Торрент: Зарегистрирован [ 2016-03-20 12:45 ] · C62C01C425764CCAD733BB31EE1DB86CA6E4E3D2

Скачать .torrent

Скачать

18 KB

Статус: проверено
Скачан: 0 раз
Размер: 1.55 GB
terms.php



Быстрый ответ

Имя:

      
Для отправки сообщений необходимо включить JavaScript
Показать сообщения:    

Текущее время: 10-Дек 17:46

Часовой пояс: UTC + 3


Вы можете начинать темы
Вы можете отвечать на сообщения
Вы не можете редактировать свои сообщения
Вы не можете удалять свои сообщения
Вы не можете голосовать в опросах
Вы не можете прикреплять файлы к сообщениям
Вы можете скачивать файлы